Рождественское желание Аннабэль / Аннабелль / Annabelle\'s Wish (Рой Уилсон / Roy Wilson) [1997, США, Мультфильм, VHSRip] MVO Формат А | ОРТ Видео

Ответить на тему
Статистика раздачи [Обновить пиров]
Размер:  1.73 GB   |    Зарегистрирован:  18 дней   |    Скачан:  0 раз

Полного источника не было: Никогда

 
   
 
 
 
Автор Сообщение

chi5o.com

Создавать темы 04-Янв-2019 10:41

[Цитировать]

Рождественское желание Аннабэль / Аннабелль / Annabelle's Wish
Страна: США
Жанр: Мультфильм
Продолжительность: 00:52:06
Год выхода: 1997
Перевод: Профессиональный (многоголосый закадровый) Формат файла А | ОРТ Видео
Русские субтитры: нет
Режиссёр: Рой Уилсон / Roy Wilson
Роли озвучивали: Ренди Тревис / Randy Travis, Джей Джонсон / Jay Johnson, Джерри Ван Дюк / Jerry Van Dyke, Джим Уорни / Jim Varney, Ру Мак Клинахан / Rue McClanahan, Глорис Личман / Cloris Leachman
Описание: Основанная на легенде, о том, что один день в канун Нового года животным дается способность говорить, эта сказка начинается, когда Аннабелль заводит дружбу с Билли, маленьким мальчиком, и обитателями фермы, на которой он живет вместе с дедушкой. Аннабелль доказывает всем, что настоящая дружба и бескорыстная любовь имеют магическую силу, которая может осуществить самую заветную мечту.
Доп. информация: Оцифровка лицензионной VHS (личный архив) и получение VHSRip alenavova
Эксклюзив для Torrentc. При размещении данного релиза на других сайтах ссылка на автора alenavova обязательна.


Семпл: http://yadi.sk/i/YPfJX6VqipEBsg
Качество: VHSRip
Формат файла: AVI
Видео: MPEG2 Video 720x576 (4:3) 25fps 4380kbps
Аудио: MPEG Audio 48000Hz stereo 256kbps
Субтитры: отсутствуют

Подробные технические данные

Волшебное желание Анабель - Annabelle's Wish [by alenavova].mpgFormat : MPEG-PSFile size : 1.73 GiBDuration : 52 min 5 sOverall bit rate mode : ConstantOverall bit rate : 4 742 kb/s
VideoID : 224 (0xE0)Format : MPEG VideoFormat version : Version 2Format profile : Main@MainFormat settings : CustomMatrix / BVOPFormat settings, BVOP : YesFormat settings, Matrix : CustomFormat settings, GOP : M=3, N=12Format settings, picture st : FrameDuration : 52 min 5 sBit rate mode : ConstantBit rate : 4 380 kb/sWidth : 720 pixelsHeight : 576 pixelsDisplay aspect ratio : 4:3Frame rate : 25.000 FPSStandard : PALColor space : YUVChroma subsampling : 4:2:0Bit depth : 8 bitsScan type : InterlacedScan order : Top Field FirstCompression mode : LossyBits/(Pixel*Frame) : 0.422Time code of first frame : 00:00:00:00Time code source : Group of pictures headerGOP, Open/Closed : OpenGOP, Open/Closed of first f : ClosedStream size : 1.60 GiB (93%)
AudioID : 192 (0xC0)Format : MPEG AudioFormat version : Version 1Format profile : Layer 2Duration : 52 min 5 sBit rate mode : ConstantBit rate : 256 kb/sChannel(s) : 2 channelsSampling rate : 48.0 kHzFrame rate : 41.667 FPS (1152 SPF)Compression mode : LossyStream size : 95.4 MiB (5%)
Menu

Скриншоты




[chi5o.com]_t_5664361.torrent
Торрент: Зарегистрирован ·  [ 2019-01-04 10:29 ] ·  ecdd33e93fb4a8ea3ee39522e4ebc22190edeb3a

18 KB

Статус: проверено
Скачан: 0 раз
Размер: 1.73 GB
Оценка: 
(Голосов: 0)
Сказали спасибо: 0  Спасибо
Похожие темы
[Профиль]    [ЛС]
Показать сообщения:    
Ответить на тему

Текущее время: Сегодня 02:06

Часовой пояс: GMT + 7



Вы не можете начинать темы
Вы не можете отвечать на сообщения
Вы не можете редактировать свои сообщения
Вы не можете удалять свои сообщения
Вы не можете голосовать в опросах
Вы не можете прикреплять файлы к сообщениям
Вы можете скачивать файлы


Deutschland sucht den Superstar | One Piece 63 | Boy Erased (2018) 720p Web DL x264 AAC ESubs Downloadhub