Смолфут / Smallfoot (Кэри Киркпатрик / Karey Kirkpatrick, Джейсон Рейсиг / Jason Reisig) [2018, США, мультфильм, мюзикл, фэнтези, комедия, приключения, BDRip-AVC] Dub (iTunes) + Original Eng + Sub Rus, Eng

Ответить на тему
Статистика раздачи [Обновить пиров]
Размер:  2.12 GB   |    Зарегистрирован:  18 дней   |    Скачан:  0 раз

Полного источника не было: Никогда

 
   
 
 
 
Автор Сообщение

chi5o.com

Создавать темы 04-Янв-2019 10:41

[Цитировать]

-Смолфут / Smallfoot-«Not every legend is a tall tale»- -Страна: США
Жанр: мультфильм, мюзикл, фэнтези, комедия, приключения
Год выхода: 2018
Продолжительность: 01:36:17-Перевод: Профессиональный (дублированный) iTunes
Субтитры: русские (форсированные, полные), английские
Оригинальная аудиодорожка: английская-Режиссёр: Кэри Киркпатрик / Karey Kirkpatrick, Джейсон Рейсиг / Jason Reisig-В ролях: Ченнинг Татум, Джеймс Корден, Зендая Колеман, Коммон, Леброн Джеймс, Дэнни ДеВито, Джина Родригез, Яра Шахиди, Эли Генри, Джимми Татро-Описание: Молодой находчивый йети сталкивается с тем, кого, по его глубокому убеждению, не существует — человеком. Новости о «смолфуте» приносят ему славу и шанс завоевать девушку его мечты. А ещё — вызывают переполох среди простых йети, которые теперь гадают, кто же ещё обитает в большом мире за пределами их маленькой заснеженной деревушки.- - -Качество: BDRip-AVC / Smallfoot.2018.REMUX.BluRay.1080p.AVC.DTS-HD.MA5.1-iFT
Формат файла: MKV-Видео: MPEG-4 AVC, 1152x480 (2.40:1), 23.976 fps, ~2264 kbps avg, 0.171 bit/pixel
Аудио 1: 48 kHz, AC3 Dolby Digital, 3/2 (L,C,R,l,r) + LFE ch, ~384 kbps avg RUS
Аудио 2: 48 kHz, AC3 Dolby Digital, 3/2 (L,C,R,l,r) + LFE ch, ~448 kbps avg ENG-

MediaInfo

Complete name               : D:\Раздача\Смолфут (2018) BDRip-AVC__ivanes.mkv
Format                      : Matroska
Format version              : Version 2
File size                   : 2.12 GiB
Duration                    : 1 h 36 min
Overall bit rate            : 3 159 kb/s
Movie name                  : Смолфут (2018) BDRip-AVC__ivanes
Encoded date                : UTC 2018-12-27 04:50:17
Writing application         : mkvmerge v4.4.0 ('Die Wiederkehr') сборка от Jan  3 2011 21:40:45
Writing library             : libebml v1.0.0 + libmatroska v1.0.0
Cover                       : Yes
Attachments                 : cover.jpg
Video
ID                          : 1
Format                      : AVC
Format/Info                 : Advanced Video Codec
Format profile              : High@L4.1
Format settings, CABAC      : Yes
Format settings, RefFrames  : 13 frames
Codec ID                    : V_MPEG4/ISO/AVC
Duration                    : 1 h 36 min
Bit rate                    : 2 264 kb/s
Width                       : 1 152 pixels
Height                      : 480 pixels
Display aspect ratio        : 2.40:1
Frame rate mode             : Constant
Frame rate                  : 23.976 (24000/1001) FPS
Color space                 : YUV
Chroma subsampling          : 4:2:0
Bit depth                   : 8 bits
Scan type                   : Progressive
Bits/(Pixel*Frame)          : 0.171
Stream size                 : 1.52 GiB (72%)
Title                       : Rip ivanes
Writing library             : x264 core 157 r2935 545de2f
Encoding settings           : cabac=1 / ref=13 / deblock=1:-3:-3 / analyse=0x3:0x113 / me=umh / subme=10 / psy=1 / psy_rd=1.00:0.00 / mixed_ref=1 / me_range=32 / chroma_me=1 / trellis=2 / 8x8dct=1 / cqm=0 / deadzone=21,11 / fast_pskip=0 / chroma_qp_offset=-2 / threads=12 / lookahead_threads=3 / sliced_threads=0 / nr=0 / decimate=1 / interlaced=0 / bluray_compat=0 / constrained_intra=0 / bframes=13 / b_pyramid=2 / b_adapt=2 / b_bias=0 / direct=1 / weightb=1 / open_gop=0 / weightp=2 / keyint=240 / keyint_min=23 / scenecut=40 / intra_refresh=0 / rc_lookahead=60 / rc=crf / mbtree=0 / crf=18.4 / qcomp=0.60 / qpmin=0 / qpmax=69 / qpstep=4 / vbv_maxrate=50000 / vbv_bufsize=62500 / crf_max=0.0 / nal_hrd=none / filler=0 / ip_ratio=1.40 / pb_ratio=1.30 / aq=1:1.00
Default                     : Yes
Forced                      : No
Statistics Tags Issue       : mkvmerge v10.0.0 ('To Drown In You') 64bit 2018-12-27 01:24:06 / mkvmerge v4.4.0 ('Die Wiederkehr') сборка от Jan  3 2011 21:40:45 2018-12-27 04:50:17
FromStats_BitRate           : 2324507
FromStats_Duration          : 01:36:17.772000000
FromStats_FrameCount        : 138528
FromStats_StreamSize        : 1678808979
Audio #1
ID                          : 2
Format                      : AC-3
Format/Info                 : Audio Coding 3
Format settings, Endianness : Big
Codec ID                    : A_AC3
Duration                    : 1 h 36 min
Bit rate mode               : Constant
Bit rate                    : 384 kb/s
Channel(s)                  : 6 channels
Channel positions           : Front: L C R, Side: L R, LFE
Sampling rate               : 48.0 kHz
Frame rate                  : 31.250 FPS (1536 SPF)
Bit depth                   : 16 bits
Compression mode            : Lossy
Stream size                 : 264 MiB (12%)
Title                       : iTunes
Language                    : Russian
Service kind                : Complete Main
Default                     : Yes
Forced                      : No
Audio #2
ID                          : 3
Format                      : AC-3
Format/Info                 : Audio Coding 3
Format settings, Endianness : Big
Codec ID                    : A_AC3
Duration                    : 1 h 36 min
Bit rate mode               : Constant
Bit rate                    : 448 kb/s
Channel(s)                  : 6 channels
Channel positions           : Front: L C R, Side: L R, LFE
Sampling rate               : 48.0 kHz
Frame rate                  : 31.250 FPS (1536 SPF)
Bit depth                   : 16 bits
Compression mode            : Lossy
Stream size                 : 309 MiB (14%)
Title                       : Original
Language                    : English
Service kind                : Complete Main
Default                     : No
Forced                      : No
Text #1
ID                          : 4
Format                      : UTF-8
Codec ID                    : S_TEXT/UTF8
Codec ID/Info               : UTF-8 Plain Text
Title                       : Forced
Language                    : Russian
Default                     : Yes
Forced                      : No
Text #2
ID                          : 5
Format                      : UTF-8
Codec ID                    : S_TEXT/UTF8
Codec ID/Info               : UTF-8 Plain Text
Title                       : Full
Language                    : Russian
Default                     : No
Forced                      : No
Text #3
ID                          : 6
Format                      : UTF-8
Codec ID                    : S_TEXT/UTF8
Codec ID/Info               : UTF-8 Plain Text
Title                       : Full
Language                    : English
Default                     : No
Forced                      : No

x264

x264 [info]: frame I:1313  Avg QP:17.00  size: 75695
x264 [info]: frame P:36114 Avg QP:18.20  size: 24288
x264 [info]: frame B:101101 Avg QP:20.94  size:  6946
x264 [info]: consecutive B-frames:  3.6%  4.7% 10.4% 45.7% 13.3% 15.9%  2.5%  3.4%  0.3%  0.0%  0.0%  0.1%  0.0%  0.0%
x264 [info]: mb I  I16..4:  3.1% 82.7% 14.2%
x264 [info]: mb P  I16..4:  1.1% 15.4%  1.8%  P16..4: 34.7% 25.9% 13.9%  0.0%  0.0%    skip: 7.3%
x264 [info]: mb B  I16..4:  0.1%  1.4%  0.2%  B16..8: 36.0% 10.9%  3.0%  direct: 4.7%  skip:43.7%  L0:38.8% L1:46.6% BI:14.6%
x264 [info]: 8x8 transform intra:83.5% inter:64.9%
x264 [info]: coded y,uvDC,uvAC intra: 90.4% 86.7% 62.6% inter: 22.1% 18.7% 3.7%
x264 [info]: i16 v,h,dc,p: 11% 10%  4% 75%
x264 [info]: i8 v,h,dc,ddl,ddr,vr,hd,vl,hu:  9%  9%  5% 10% 14% 14% 14% 12% 14%
x264 [info]: i4 v,h,dc,ddl,ddr,vr,hd,vl,hu:  7%  7%  2%  9% 18% 16% 16% 11% 13%
x264 [info]: i8c dc,h,v,p: 38% 24% 18% 21%
x264 [info]: Weighted P-Frames: Y:3.7% UV:2.4%
x264 [info]: ref P L0: 51.9% 13.1% 14.4%  4.9%  4.0%  3.0%  2.6%  1.4%  1.2%  1.0%  0.9%  0.8%  0.8%  0.1%  0.0%
x264 [info]: ref B L0: 79.8%  8.4%  4.0%  2.1%  1.4%  1.3%  1.1%  0.7%  0.5%  0.4%  0.3%  0.2%
x264 [info]: ref B L1: 96.3%  3.7%
x264 [info]: kb/s:2324.51

Скриншоты



[chi5o.com]_t_5665596.torrent
Торрент: Зарегистрирован ·  [ 2019-01-04 10:29 ] ·  6ad928cae6d4bd5e3c4339b9468f066c37873ac0

11 KB

Статус: проверено
Скачан: 0 раз
Размер: 2.12 GB
Оценка: 
(Голосов: 0)
Сказали спасибо: 0  Спасибо
Похожие темы
[Профиль]    [ЛС]
Показать сообщения:    
Ответить на тему

Текущее время: Сегодня 02:04

Часовой пояс: GMT + 7



Вы не можете начинать темы
Вы не можете отвечать на сообщения
Вы не можете редактировать свои сообщения
Вы не можете удалять свои сообщения
Вы не можете голосовать в опросах
Вы не можете прикреплять файлы к сообщениям
Вы можете скачивать файлы


Sammi Cheng | Kyutto Musunde, Suki | Broad City