Синдбад. Пираты семи штормов (Владлен Барбэ) [2016, Россия, Мультфильм, WEB-DLRip]

Ответить на тему
Статистика раздачи [Обновить пиров]
Размер:  746 MB   |    Зарегистрирован:  17 дней   |    Скачан:  0 раз

Полного источника не было: Никогда

 
   
 
 
 
Автор Сообщение

chi5o.com

Создавать темы 04-Янв-2019 10:41

[Цитировать]

Синдбад. Пираты семи штормов- Страна: Россия
Жанр: Мультфильм
Продолжительность: 01:17:30
Год выхода: 2016
Перевод: Не требуется
Русские субтитры: нет-Режиссёр: Владлен Барбэ-Роли озвучивали: Андрей Лёвин, Катерина Шпица, Дмитрий Нагиев, Марина Лисовец, Диомид Виноградов, Юрий Стоянов, Андрей Кайков, Эдуард Радзюкевич, Игорь Лифанов, Илья Лыков-Описание: Синдбад, молодой веселый пират, не очень удачлив в пиратском промысле — за год ему и его команде не удалось захватить ни одного корабля. Но судьба улыбается Синдбаду: старик Антиох показывает ему старинную карту и предлагает плыть на остров Скелета, где хранятся сокровища. Синдбад не знает, что этот Антиох — волшебник, который преследует свои корыстные планы…
Да тут еще Солара, подруга Синдбада по детским играм, свалилась ему на голову! Неужели любовь? Нет, Синдбад так просто не сдается! Путь на остров Скелета лежит через Море Семи Штормов. Синдабада и его команду ждет сражение с Канатным Монстром и встреча со своим заклятым врагом пиратом Кесамом. Да и на острове не обойдется без приключений: Циклоп, Птица Рух и ее Птенчик уже давно ждут гостей.-Семпл: http://multi-up.com/1129206-Качество: WEB-DLRip
Формат файла: AVI
Видео: 688x368 (1.85:1), 24.000 fps, XviD build 73, 1 211 Kbps
Аудио: 48.0 kHz, MPEG Layer 3, 2 ch, 128 kbps
Субтитры: "отсутствуют"-: -

Подробные технические данные

General Complete name : Downloads\Sinbad.2016.WEB-DLRip.745MB..avi Format : AVI Format/Info : Audio Video Interleave File size : 746 MiB Duration : 1h 17mn Overall bit rate : 1 345 Kbps Video #0 ID : 0 Format : MPEG-4 Visual Format profile : Advanced Simple@L5 Format settings, BVOP : 1 Format settings, QPel : No Format settings, GMC : No warppoints Format settings, Matrix : Custom Codec ID : XVID Codec ID/Hint : XviD Duration : 1h 17mn Bit rate : 1 211 Kbps Width : 688 pixels Height : 368 pixels Display aspect ratio : 1.85:1 Frame rate : 24.000 fps Color space : YUV Chroma subsampling : 4:2:0 Bit depth : 8 bits Scan type : Progressive Compression mode : Lossy Bits/(Pixel*Frame) : 0.199 Stream size : 671 MiB (90%) Writing library : XviD 73 Audio #1 ID : 1 Format : MPEG Audio Format version : Version 1 Format profile : Layer 3 Mode : Joint stereo Mode extension : MS Stereo Codec ID : 55 Codec ID/Hint : MP3 Duration : 1h 17mn Bit rate mode : Constant Bit rate : 128 Kbps Channel(s) : 2 channels Sampling rate : 48.0 KHz Compression mode : Lossy Stream size : 71.0 MiB (10%) Alignment : Aligned on interleaves Interleave, duration : 167 ms (4.00 video frames) Interleave, preload duration : 216 ms Title : iTunes Writing library : LAME3.99r Encoding settings : -m j -V 4 -q 2 -lowpass 17 -b 128

Скриншоты



[chi5o.com]_t_5319573.torrent
Торрент: Зарегистрирован ·  [ 2019-01-04 10:29 ] ·  f018b00003364877977b555bdd5cf5d97a7ace88

15 KB

Статус: проверено
Скачан: 0 раз
Размер: 746 MB
Оценка: 
(Голосов: 0)
Сказали спасибо: 0  Спасибо
Похожие темы
[Профиль]    [ЛС]
Показать сообщения:    
Ответить на тему

Текущее время: Сегодня 16:46

Часовой пояс: GMT + 7



Вы не можете начинать темы
Вы не можете отвечать на сообщения
Вы не можете редактировать свои сообщения
Вы не можете удалять свои сообщения
Вы не можете голосовать в опросах
Вы не можете прикреплять файлы к сообщениям
Вы можете скачивать файлы


Resident Evil : Chapitre Final FRENCH HDRiP MD 2017 | You Only Live Once | A League of Their Own