Новости в одиннадцать / News at Eleven (Майк Роуб / Mike Robe) [1986, США, драма, VHSRip > DVD] AVO (Визгунов)

Ответить на тему
Статистика раздачи [Обновить пиров]
Размер:  3.96 GB   |    Зарегистрирован:  14 дней   |    Скачан:  0 раз

Полного источника не было: Никогда

 
   
 
 
 
Автор Сообщение

chi5o.com

Создавать темы 03-Янв-2019 23:12

[Цитировать]

Новости в одиннадцать / News at Eleven
Страна: США
Жанр: драма
Год выхода: 1986
Продолжительность: 01:34:01
Перевод: Авторский (одноголосый закадровый) Визгунов
Субтитры: нет
Оригинальная аудиодорожка: нет
Режиссер: Майк Роуб / Mike Robe
В ролях: Мартин Шин, Питер Ригерт, Барбара Бэбкок, Дэвид Шайнер, Кристофер Оллпорт
Описание: Фрэнк Кенли работающий на телеканале сталкивается с рядом моральных дилемм, когда сталкивается с последним скандалом: учитель обвиняется в сексуальном насилии над студентом. Пытаясь держать дело в суде, вместо того, чтобы судить учителя по телевидению, закулисный продюсер берет дело из рук и поддается хирстовскому стилю «желтой журналистики».
Меню: Отсутствует
Сэмпл: http://multi-up.com/1219065
Тип релиза: VHSRip > DVD
Формат файла: DVD-Video
Видео: PAL 4:3 (720x576), MPEG2, 5467 Kbps
Аудио: Russian (Dolby AC3, 2 ch, 384 Kbps)

MediaInfo

Информация о проигрывателе: Код зоны проигрывателя: Не указано Код зоны диска: 1, 2, 3, 4, 5, 6, AllПолное имя : D:\КИНО РУТР\ДЛЯ рутрекера\News at Eleven\VIDEO_TS\VTS_01_1.VOBФормат файла : MPEG-PSРазмер файла : 1024 МбайтПродолжительность : 23 м.Режим общего битрейта : ПеременныйОбщий поток : 5970 Кбит/сек
ВидеоИдентификатор : 224 (0xE0)Формат файла : MPEG VideoВерсия формата : Version 2Профиль формата : Main@MainПараметр BVOP формата : ДаПараметр матрицы формата : По умолчаниюПараметр GOP формата : M=3, N=12Продолжительность : 23 м.Вид битрейта : ПеременныйБитрейт : 5467 Кбит/секШирина : 720 пикселейВысота : 576 пикселейСоотношение сторон : 4:3Частота кадров : 25,000 кадров/секСтандарт вещания : PALЦветовое пространство : YUVСубдискретизация насыщенности : 4:2:0Битовая глубина : 8 битМетод сжатия : С потерямиБит/(Пиксели*Кадры) : 0.527Размер потока : 938 Мбайт (92%)Основные цвета : BT.601 PALХарактеристики трансфера : BT.470 System B, BT.470 System GКоэффициенты матрицы : BT.601
АудиоИдентификатор : 189 (0xBD)-128 (0x80)Формат файла : AC-3Формат файла/Информация : Audio Coding 3Расширение режима : CM (complete main)Параметр Endianness формата : BigРежим смешивания : DVD-VideoПродолжительность : 23 м.Вид битрейта : ПостоянныйБитрейт : 384 Кбит/секКаналы : 2 каналаРасположение каналов : Front: L RЧастота : 48,0 КГцБитовая глубина : 16 битМетод сжатия : С потерямиЗадержка видео : -43 мс.Размер потока : 65,9 Мбайт (6%)


[chi5o.com]_t_5667614.torrent
Торрент: Зарегистрирован ·  [ 2019-01-03 23:12 ] ·  9c44ef35e7ba4374afd1bedec177b6af2c398b54

21 KB

Статус: проверено
Скачан: 0 раз
Размер: 3.96 GB
Оценка: 
(Голосов: 0)
Сказали спасибо: 0  Спасибо
Похожие темы
[Профиль]    [ЛС]
Показать сообщения:    
Ответить на тему

Текущее время: Сегодня 13:04

Часовой пояс: GMT + 7



Вы не можете начинать темы
Вы не можете отвечать на сообщения
Вы не можете редактировать свои сообщения
Вы не можете удалять свои сообщения
Вы не можете голосовать в опросах
Вы не можете прикреплять файлы к сообщениям
Вы можете скачивать файлы


Waterproof A4 Paper Folder Document Filing Bag Stationery Storage Supplies CB | Скачать | Film Vitre Verre Trempe Protection Pour Samsung Galaxy A3 A5 A8 J3 J5 S7 S8 S9