Дневная смена / Dagvaktin / Day Shift / Сезон: 1 / Серии: 1-11 из 11 (Рагнар Брагасон) [2008, Исландия, Комедия, драма, DVDRip-AVC] Original + Rus Sub (Nebëhr Gudahtt)

Ответить на тему
Статистика раздачи [Обновить пиров]
Размер:  1.91 GB   |    Зарегистрирован:  15 дней   |    Скачан:  0 раз

Полного источника не было: Никогда

 
   
 
 
 
Автор Сообщение

chi5o.com

Создавать темы 02-Янв-2019 15:21

[Цитировать]

Дневная смена / Dagvaktin / Day Shift
Год выхода: 2008
Страна: Исландия
Жанр: Комедия, драма
Продолжительность: ~00:30:00
Перевод: Субтитры Nebëhr Gudahtt
Режиссёр: Рагнар Брагасон
В ролях: Йоун Гнарр, Пьетюр Йоуханн Сигфуссон, Йёрюндюр Рагнарссон, Оулавия Хрённ Йоунсдоуттир, Магнус Оулафссон.
Описание: Вторая часть (IMDB) цикла популярных исландских сериалов. После увольнения с бензозаправки герои "Ночной смены" (Næturvaktin) устраиваются на работу в сельскую гостиницу в Западных Фьордах.
Доп. информация: Раздаваться будет недолго, поэтому интересующимся просьба поддержать раздачу.
Сэмпл: http://sendfile.su/1462643
Качество: DVDRip-AVC
Формат файла: MKV
Видео: V_MPEG4/ISO/AVC, 720x480, 16x9, 25 fps, 682 kb/s
Аудио: AAC, 48.0 kHz, 161 kb/s, стерео
Субтитры: SRT (русский, исландский)
Реклама:
Отсутствует

MediaInfo

General
Unique ID : 221838318036045451359799658705557577686 (0xA6E481860ED57198B6AA39BF7C6ADFD6)
Format : Matroska
Format version : Version 4 / Version 2
File size : 183 MiB
Duration : 30 min 15 s
Overall bit rate : 845 kb/s
Encoded date : UTC 2018-12-19 14:57:30
Writing application : mkvmerge v18.0.0 ('Apricity') 64-bit
Writing library : libebml v1.3.5 + libmatroska v1.4.8
Video #1
ID : 1
Format : AVC
Format/Info : Advanced Video Codec
Format profile : Main@L3.1
Format settings, CABAC : Yes
Format settings, ReFrames : 4 frames
Codec ID : V_MPEG4/ISO/AVC
Duration : 30 min 15 s
Bit rate : 682 kb/s
Width : 720 pixels
Height : 480 pixels
Display aspect ratio : 16:9
Frame rate mode : Constant
Frame rate : 25.000 FPS
Color space : YUV
Chroma subsampling : 4:2:0
Bit depth : 8 bits
Scan type : Progressive
Bits/(Pixel*Frame) : 0.079
Stream size : 148 MiB (81%)
Writing library : x264 core 148 r2708 86b7198
Encoding settings : cabac=1 / ref=2 / deblock=1:0:0 / analyse=0x1:0x111 / me=hex / subme=6 / psy=1 / psy_rd=1.00:0.00 / mixed_ref=1 / me_range=16 / chroma_me=1 / trellis=1 / 8x8dct=0 / cqm=0 / deadzone=21,11 / fast_pskip=1 / chroma_qp_offset=-2 / threads=12 / lookahead_threads=2 / sliced_threads=0 / nr=0 / decimate=1 / interlaced=0 / bluray_compat=0 / constrained_intra=0 / bframes=3 / b_pyramid=2 / b_adapt=1 / b_bias=0 / direct=1 / weightb=1 / open_gop=0 / weightp=1 / keyint=250 / keyint_min=25 / scenecut=40 / intra_refresh=0 / rc_lookahead=30 / rc=crf / mbtree=1 / crf=20.0 / qcomp=0.60 / qpmin=0 / qpmax=69 / qpstep=4 / vbv_maxrate=14000 / vbv_bufsize=14000 / crf_max=0.0 / nal_hrd=none / filler=0 / ip_ratio=1.40 / aq=1:1.00
Default : Yes
Forced : No
Color range : Limited
Color primaries : BT.601 PAL
Transfer characteristics : BT.709
Matrix coefficients : BT.601
Audio #2
ID : 2
Format : AAC
Format/Info : Advanced Audio Codec
Format profile : LC
Codec ID : A_AAC
Duration : 30 min 15 s
Bit rate : 161 kb/s
Channel(s) : 2 channels
Channel positions : Front: L R
Sampling rate : 48.0 kHz
Frame rate : 46.875 FPS (1024 spf)
Compression mode : Lossy
Stream size : 34.9 MiB (19%)
Language : Icelandic
Default : Yes
Forced : No
Text #3
ID : 3
Format : UTF-8
Codec ID : S_TEXT/UTF8
Codec ID/Info : UTF-8 Plain Text
Duration : 29 min 37 s
Bit rate : 114 b/s
Count of elements : 348
Stream size : 24.8 KiB (0%)
Language : Russian
Default : Yes
Forced : No
Text #4
ID : 4
Format : UTF-8
Codec ID : S_TEXT/UTF8
Codec ID/Info : UTF-8 Plain Text
Duration : 29 min 16 s
Bit rate : 74 b/s
Count of elements : 340
Stream size : 15.9 KiB (0%)
Language : Icelandic
Default : No
Forced : No

Скриншоты

Пример субтитров

198
00:17:25,113 --> 00:17:27,113
Я сказал той женщине, что
мы приедем в два.
199
00:17:27,163 --> 00:17:28,363
Так, больше ни слова об этом.
200
00:17:44,561 --> 00:17:45,613
Пачку!
201
00:17:50,283 --> 00:17:53,785
Если курит один, то курят все,
а я не дам тебе стать моим убийцей, Оулавюр.
202
00:18:14,573 --> 00:18:16,824
- Оули, дружище...
- Да?
203
00:18:17,071 --> 00:18:20,322
Я тут подумал...
Тебе не кажется, что
204
00:18:20,572 --> 00:18:25,702
было бы лучше, если бы
роль супервизора взял на себя я,
205
00:18:25,952 --> 00:18:31,201
а ты был бы ассистентом?
Ответственности намного меньше,
206
00:18:31,201 --> 00:18:33,953
а для тебя куда проще.
207
00:18:36,203 --> 00:18:37,951
Не, ну... я не знаю.
208
00:18:38,203 --> 00:18:41,203
К тому же, у меня есть
опыт руководства.
209
00:18:43,205 --> 00:18:45,954
У меня так много
всего произошло,
210
00:18:46,455 --> 00:18:48,705
и я думаю, что
вполне с этим справлюсь.
211
00:18:48,955 --> 00:18:54,205
Да, со временем. Стало быть,
мы договорились, что, когда
212
00:18:54,455 --> 00:18:57,453
мы приедем на запад,
я беру эту должность начальника,
213
00:18:57,705 --> 00:18:59,453
а ты станешь моей правой рукой.
214
00:19:00,454 --> 00:19:03,705
- Ну...
- Отлично, значит, договорились.
215
00:19:04,705 --> 00:19:07,202
Ну я даже не знаю...
216
00:19:10,840 --> 00:19:14,842
- Сходи и подбери там бутылку.
- Какую бутылку?
217
00:19:16,095 --> 00:19:19,092
Пластиковую бутылку,
что на обочине валяется.
218
00:19:20,845 --> 00:19:24,295
- Разве нам не надо спешить?
- Надо, и ты нас задерживаешь.
219
00:19:25,060 --> 00:19:29,591
Это ценная вещь, и, кроме того,
она наносит огромный вред природе.
220
00:19:31,095 --> 00:19:32,591
Но она по ту сторону канавы.
221
00:19:40,841 --> 00:19:42,641
Это настоящие Buffalo,
а не какой-нибудь хлам с Колапортида.
[url=tracker.php?g=foreign_serials&nm=Dagvaktin%20%2F%20Day%20Shift]Предыдущие и альтернативные раздачи[/url]


[chi5o.com]_t_5661976.torrent
Торрент: Зарегистрирован ·  [ 2019-01-02 14:14 ] ·  9d73482b94b3827d41b5f0107c6021fd322a1362

20 KB

Статус: проверено
Скачан: 0 раз
Размер: 1.91 GB
Оценка: 
(Голосов: 0)
Сказали спасибо: 0  Спасибо
Похожие темы
[Профиль]    [ЛС]
Показать сообщения:    
Ответить на тему

Текущее время: Сегодня 12:37

Часовой пояс: GMT + 7



Вы не можете начинать темы
Вы не можете отвечать на сообщения
Вы не можете редактировать свои сообщения
Вы не можете удалять свои сообщения
Вы не можете голосовать в опросах
Вы не можете прикреплять файлы к сообщениям
Вы можете скачивать файлы


Assistir Hostis Dublado Online | Tiger Mask W | Falling Skies