Похищенные сердца / Потерянные сердца / Lost hearts (Лоуренс Гордон Кларк / Lawrence Gordon Clark) [1973, Великобритания, Мистика, DVDRip-AVC] VO (Клерик) + Sub Rus (Юлия2705) + Original Eng

Ответить на тему
Статистика раздачи [Обновить пиров]
Размер:  703 MB   |    Зарегистрирован:  15 дней   |    Скачан:  0 раз

Полного источника не было: Никогда

 
   
 
 
 
Автор Сообщение

chi5o.com

Создавать темы 02-Янв-2019 14:11

[Цитировать]

Похищенные сердца / Потерянные сердца / Lost hearts
Страна: Великобритания
Жанр: Мистика
Год выхода: 1973
Продолжительность: 00:34:49
Перевод: Одноголосый закадровый (любительский) Клерик (PiratVoice)
Субтитры: русские Юлия2705 (madelaine)
Субтитры: английские
Оригинальная аудиодорожка: английский
Режиссер: Лоуренс Гордон Кларк / Lawrence Gordon Clark
В ролях: Саймон Джиппс-Кент/Simon Gipps-Kent (Стивен), Джозеф О’Конор/Joseph O'Conor (мистер Эбни), Джеймс Меллор/James Mellor (Паркес), Сьюзэн Ричардс/Susan Richards (миссис Банч), Кристофер Дэвис/Christopher Davis (мальчик), Мишель Фостер/Michelle Foster (девочка), Роджер Милнер/Roger Milner (викарий)
Описание: Недавно осиротевший Стивен приезжает жить к своему странному старому кузену мистеру Эбни в его уединённое загородное поместье. Со временем ему начинают сниться страшные сны, в которых он видит юную девушку и мальчика, у которых отсутствуют сердца...
Доп. информация: Третий фильм цикла Ghost Stories for Christmas, выпускавшегося студией BBC с 1971 года.
Сэмпл: http://sendfile.su/1461397
Качество видео: DVDRip-AVC
Формат файла: MKV
Видео: AVC, 696x566, 4:3, 25.000 FPS, 2 256 kb/s
Аудио: AC-3, 48.0 kHz, 2 ch, 192 kb/s
Аудио 2: AC-3, 48.0 kHz, 2 ch, 320 kb/s
Формат файла субтитров: softsub (SRT)
Постер, описание и русские субтитры взяты из раздачи пользователя [url=profile.php?mode=viewprofile&u=5835182]Юлия2705[/url]

MediaInfo

Format : MatroskaFormat version : Version 2File size : 703 MiBDuration : 34 min 49 sOverall bit rate : 2 824 kb/sEncoded date : UTC 2018-12-12 09:21:13Writing application : mkvmerge v7.8.0 ('River Man') 32bit built on Apr 3 2015 12:11:22Writing library : libebml v1.3.1 + libmatroska v1.4.2
VideoID : 1Format : AVCFormat/Info : Advanced Video CodecFormat profile : High@L3.2Format settings : CABAC / 12 Ref FramesFormat settings, CABAC : YesFormat settings, ReFrames : 12 framesCodec ID : V_MPEG4/ISO/AVCDuration : 34 min 49 sBit rate : 2 256 kb/sWidth : 696 pixelsHeight : 566 pixelsDisplay aspect ratio : 4:3Original display aspect rat : 4:3Frame rate mode : ConstantFrame rate : 25.000 FPSColor space : YUVChroma subsampling : 4:2:0Bit depth : 8 bitsScan type : ProgressiveBits/(Pixel*Frame) : 0.229Stream size : 562 MiB (80%)Writing library : x264 core 130 r2273 b3065e6Encoding settings : cabac=1 / ref=12 / deblock=1:-3:-3 / analyse=0x3:0x133 / me=umh / subme=11 / psy=1 / psy_rd=1.00:0.00 / mixed_ref=1 / me_range=24 / chroma_me=1 / trellis=2 / 8x8dct=1 / cqm=0 / deadzone=21,11 / fast_pskip=0 / chroma_qp_offset=-2 / threads=12 / lookahead_threads=3 / sliced_threads=0 / nr=0 / decimate=1 / interlaced=0 / bluray_compat=0 / constrained_intra=0 / bframes=12 / b_pyramid=2 / b_adapt=2 / b_bias=0 / direct=3 / weightb=1 / open_gop=0 / weightp=2 / keyint=250 / keyint_min=25 / scenecut=40 / intra_refresh=0 / rc=crf / mbtree=0 / crf=21.0 / qcomp=0.60 / qpmin=0 / qpmax=69 / qpstep=4 / ip_ratio=1.40 / pb_ratio=1.30 / aq=1:0.90Language : EnglishDefault : YesForced : NoColor range : LimitedColor primaries : BT.601 PALTransfer characteristics : BT.709Matrix coefficients : BT.601
Audio #1ID : 2Format : AC-3Format/Info : Audio Coding 3Commercial name : Dolby DigitalCodec ID : A_AC3Duration : 34 min 49 sBit rate mode : ConstantBit rate : 192 kb/sChannel(s) : 2 channelsChannel layout : L RSampling rate : 48.0 kHzFrame rate : 31.250 FPS (1536 SPF)Bit depth : 16 bitsCompression mode : LossyStream size : 47.8 MiB (7%)Title : VO КлерикLanguage : RussianService kind : Complete MainDefault : YesForced : No
Audio #2ID : 3Format : AC-3Format/Info : Audio Coding 3Commercial name : Dolby DigitalCodec ID : A_AC3Duration : 34 min 49 sBit rate mode : ConstantBit rate : 320 kb/sChannel(s) : 2 channelsChannel layout : L RSampling rate : 48.0 kHzFrame rate : 31.250 FPS (1536 SPF)Bit depth : 16 bitsCompression mode : LossyStream size : 79.7 MiB (11%)Language : EnglishService kind : Complete MainDefault : NoForced : No
Text #1ID : 4Format : UTF-8Codec ID : S_TEXT/UTF8Codec ID/Info : UTF-8 Plain TextTitle : Юлия2705 (madelaine)Language : RussianDefault : NoForced : No
Text #2ID : 5Format : UTF-8Codec ID : S_TEXT/UTF8Codec ID/Info : UTF-8 Plain TextLanguage : EnglishDefault : NoForced : No
Menu00:00:00.000 : en:Chapter 100:10:20.600 : en:Chapter 200:19:51.840 : en:Chapter 300:27:14.680 : en:Chapter 4

Скриншот c названием фильма

Скриншоты





14.12.2018 Раздача обновлена. Взят другой рип. Видео и звук (оригинальный) более высокого качества. Добавлены английские субтитры и чаптеры. Скриншоты и сэмпл тоже перезалиты.


[chi5o.com]_t_5653153.torrent
Торрент: Зарегистрирован ·  [ 2019-01-02 14:11 ] ·  622f5ae469d897f9a69cff8a1c81e3a6993f60c4

14 KB

Статус: проверено
Скачан: 0 раз
Размер: 703 MB
Оценка: 
(Голосов: 0)
Сказали спасибо: 0  Спасибо
Похожие темы
[Профиль]    [ЛС]
Показать сообщения:    
Ответить на тему

Текущее время: Сегодня 12:43

Часовой пояс: GMT + 7



Вы не можете начинать темы
Вы не можете отвечать на сообщения
Вы не можете редактировать свои сообщения
Вы не можете удалять свои сообщения
Вы не можете голосовать в опросах
Вы не можете прикреплять файлы к сообщениям
Вы можете скачивать файлы


Camera hành trình | Anneaux inox 316 Rond 3 x 15 mm intérieur ( Lot de 10 ) inox A4 | General Discussions