Беглецы / Les fugitifs (Франсис Вебер / Francis Veber) [1986, Франция, Комедия, криминал, BDRip] AVO (Павел Прямостанов)

Ответить на тему
Статистика раздачи [Обновить пиров]
Размер:  1.45 GB   |    Зарегистрирован:  15 дней   |    Скачан:  0 раз

Полного источника не было: Никогда

 
   
 
 
 
Автор Сообщение

chi5o.com

Создавать темы 02-Янв-2019 14:11

[Цитировать]

Беглецы / Les fugitifs
Страна: Франция
Жанр: Комедия, криминал
Год выхода: 1986
Продолжительность: 01:29:11
Перевод: Авторский (одноголосый закадровый) Павел Прямостанов
Субтитры: нет
Режиссер: Франсис Вебер / Francis Veber
В ролях: Пьер Ришар
Жерар Депардье
Жан Карме
Морис Барье
Жан Бенгиги
Ролан Бланш
Анаис Бре
Филипп Лельевр
Ивелин Айо
Дидье Пэн
Описание: Нескладный грабитель банка захватывает в заложники бывшего «крутого» заключенного. Полиция бросается за ними в погоню, герои меняются ролями. «Заложник» становится нянькой «похитителя» и «отцом» его немой дочери. Теперь «крутой», который сидел за 14 ограблений банков твердо решил «завязать».
Он помогает странной семейке скрываться от полиции, навлекая на себя массу новых проблем. Но, в награду ему будет атмосфера семейной любви, о чем он не имел понятия, и даже маленькое чудо, произошедшее с немой девочкой…
Доп. информация: За звуковую дорожку П . Прямостанова благодарим alenavova , m.mamichev за активное участие ,а также мне за синхрон дорожки.
Сэмпл: http://yadi.sk/i/rTtwFQX97FocaQ
Качество видео: BDRip
Формат файла: AVI
Видео: XviD , 720x400 (1.80:1), 23.976 fps, 2 130 Kbps
Аудио: AC3 , 48 kHz , 192.00 kbps avg , 2/0 (L,R) ch

MediaInfo

Complete name Беглецы 1986 (Pryamostanov).aviFormat : AVIFormat/Info : Audio Video InterleaveFile size : 1.45 GiBDuration : 1h 29mnOverall bit rate : 2 331 KbpsWriting library : VirtualDub build 35491/release
VideoID : 0Format : MPEG-4 VisualFormat profile : Advanced Simple@L5Format settings, BVOP : 1Format settings, QPel : NoFormat settings, GMC : No warppointsFormat settings, Matrix : CustomCodec ID : XVIDCodec ID/Hint : XviDDuration : 1h 29mnBit rate : 2 130 KbpsWidth : 720 pixelsHeight : 400 pixelsDisplay aspect ratio : 16:9Frame rate : 23.976 (23976/1000) fpsColor space : YUVChroma subsampling : 4:2:0Bit depth : 8 bitsScan type : ProgressiveCompression mode : LossyBits/(Pixel*Frame) : 0.308Stream size : 1.33 GiB (91%)Writing library : XviD 73
AudioID : 1Format : AC-3Format/Info : Audio Coding 3Mode extension : CM (complete main)Format settings, Endianness : BigCodec ID : 2000Duration : 1h 29mnBit rate mode : ConstantBit rate : 192 KbpsChannel(s) : 2 channelsChannel positions : Front: L RSampling rate : 48.0 KHzFrame rate : 31.250 fps (1536 spf)Compression mode : LossyStream size : 122 MiB (8%)Alignment : Aligned on interleavesInterleave, duration : 42 ms (1.00 video frame)Interleave, preload duratio : 512 ms


[chi5o.com]_t_5663597.torrent
Торрент: Зарегистрирован ·  [ 2019-01-02 14:11 ] ·  e1b03383ddced3434d2308d56ba4e30c07bc2372

15 KB

Статус: проверено
Скачан: 0 раз
Размер: 1.45 GB
Оценка: 
(Голосов: 0)
Сказали спасибо: 0  Спасибо
Похожие темы
[Профиль]    [ЛС]
Показать сообщения:    
Ответить на тему

Текущее время: Сегодня 12:36

Часовой пояс: GMT + 7



Вы не можете начинать темы
Вы не можете отвечать на сообщения
Вы не можете редактировать свои сообщения
Вы не можете удалять свои сообщения
Вы не можете голосовать в опросах
Вы не можете прикреплять файлы к сообщениям
Вы можете скачивать файлы


Running Man Episode 337 | Wendell Niles | Midare Gami