Собака, остановившая войну / La Guerre des Tuques / The Dog Who Stopped The War (Андрэ Меланкон / André Mélançon) [1984, Канада, приключения, комедия, драма, семейный, VHSRip > DVD] [Советская прокатная копия] Dub (Горького)

Ответить на тему
Статистика раздачи [Обновить пиров]
Размер:  3.97 GB   |    Зарегистрирован:  15 дней   |    Скачан:  0 раз

Полного источника не было: Никогда

 
   
 
 
 
Автор Сообщение

chi5o.com

Создавать темы 02-Янв-2019 14:11

[Цитировать]

Собака, остановившая войну / La Guerre des Tuques [Советская прокатная копия]- Страна: Канада
Жанр: приключения, комедия, драма, семейный
Год выхода: 1984
Продолжительность: 01:22:24-Перевод: Профессиональный (дублированный)
Субтитры: нет-Режиссер: Андрэ Меланкон / André Mélançon
В ролях: Седрик Журд, Мари-Пьер А. Дъамур, Жюльен Эли, Мин Ву Дюк, Мариз Картрайт, Люк Бучер, Натали Ганьон, Оливье Монетт, Марио Монетт, Гилберт Монетт...- | : -Описание: Во время рождественских праздников, дети из одной деревни делятся на две группы чтобы поиграть в войнушку снежками. Но эта полу-война сделала более сложным взаимные отношения между Люком — шефом одной из сторон, и Софи — лидером защитников снежной крепости.-Доп. информация: Оцифровка кассеты Госкино СССР.-Семпл: http://sendfile.su/1463841-Тип релиза: VHSRip
Формат файла: DVD-Video
Видео: PAL 720x576 (4:3) @ 768x576, 25.000 fps, MPEG-2 Video, ~6622 Kbps, 0.639 bits/pixel
Аудио: Русский, 48.0 KHz, AC3, 2 ch, 256 Kbps

DVDInfo

Title: Собака, остановившая войну 1984 Dub ГорькогоSize: 3.97 Gb ( 4 164 874,00 KBytes ) - DVD-5Enabled regions: 1, 2, 3, 4, 5, 6, 7, 8
VTS_01 : Play Length: 01:22:24 Video: PAL 4:3 (720x576) VBR Audio: Russian, AC3, 2/0 (L,R) ch, 256 kbps, Delay 0 mSec

MediaInfo

GeneralComplete name : \Собака, остановившая войну 1984 Dub Горького\VIDEO_TS\VTS_01_1.VOBFormat : MPEG-PSFile size : 1 024 MiBDuration : 20 min 24 sOverall bit rate mode : VariableOverall bit rate : 7 018 kb/s
VideoID : 224 (0xE0)Format : MPEG VideoFormat version : Version 2Format profile : Main@MainFormat settings : BVOPFormat settings, BVOP : YesFormat settings, Matrix : DefaultFormat settings, GOP : VariableFormat settings, picture structure : FrameDuration : 20 min 24 sBit rate mode : VariableBit rate : 6 622 kb/sMaximum bit rate : 9 400 kb/sWidth : 720 pixelsHeight : 576 pixelsDisplay aspect ratio : 4:3Frame rate : 25.000 FPSStandard : PALColor space : YUVChroma subsampling : 4:2:0Bit depth : 8 bitsScan type : InterlacedScan order : Top Field FirstCompression mode : LossyBits/(Pixel*Frame) : 0.639Time code of first frame : 00:00:00:00Time code source : Group of pictures headerGOP, Open/Closed : OpenGOP, Open/Closed of first frame : ClosedStream size : 966 MiB (94%)Color primaries : BT.601 PALTransfer characteristics : BT.470 System B/GMatrix coefficients : BT.470 System B/G
AudioID : 189 (0xBD)-128 (0x80)Format : AC-3Format/Info : Audio Coding 3Commercial name : Dolby DigitalMuxing mode : DVD-VideoDuration : 20 min 23 sBit rate mode : ConstantBit rate : 256 kb/sChannel(s) : 2 channelsChannel layout : L RSampling rate : 48.0 kHzFrame rate : 31.250 FPS (1536 SPF)Bit depth : 16 bitsCompression mode : LossyStream size : 37.3 MiB (4%)Service kind : Complete Main
Menu

Обложка кассеты Госкино СССР



[chi5o.com]_t_5664485.torrent
Торрент: Зарегистрирован ·  [ 2019-01-02 14:11 ] ·  c87ea66032f5c112de9a9e10a23f48bc30cf6230

21 KB

Статус: проверено
Скачан: 0 раз
Размер: 3.97 GB
Оценка: 
(Голосов: 0)
Сказали спасибо: 0  Спасибо
Похожие темы
[Профиль]    [ЛС]
Показать сообщения:    
Ответить на тему

Текущее время: Сегодня 12:57

Часовой пояс: GMT + 7



Вы не можете начинать темы
Вы не можете отвечать на сообщения
Вы не можете редактировать свои сообщения
Вы не можете удалять свои сообщения
Вы не можете голосовать в опросах
Вы не можете прикреплять файлы к сообщениям
Вы можете скачивать файлы


Tell Me a Story Saison 1 VOSTFR | HD sorozatok | Jothika | kattrin Mozhi | RJ jothika comedy scene | catering order comedy | 5:16