Без жалости / Ожесточись / Вам Имею В Виду / Get Mean (Фердинандо Бальди / Ferdinando Baldi) [1975, Италия, вестерн, приключения, DVDRip] VO (Вадим Назаров)

Ответить на тему
Статистика раздачи [Обновить пиров]
Размер:  1.36 GB   |    Зарегистрирован:  15 дней   |    Скачан:  0 раз

Полного источника не было: Никогда

 
   
 
 
 
Автор Сообщение

chi5o.com

Создавать темы 02-Янв-2019 14:11

[Цитировать]

Без жалости / Ожесточись / Вам Имею В Виду / Get Mean
Страна: Италия
Жанр: вестерн, приключения
Год выхода: 1975
Продолжительность: 01:30:16
Перевод: Одноголосый закадровый Вадим Назаров
Субтитры: нет
Режиссер: Фердинандо Бальди / Ferdinando Baldi
В ролях: Тони Энтони, Ллойд Баттиста, Раф Бальдассарре, Диана Лорис, Дэвид Дрейер, Мирта Миллер, Пол Кастро, Шерман Бергман
Описание: Американский ковбой натыкается на цыганскую семью в городе-призраке, они дают ему денег, чтобы он сопроводил принцессу домой в Испанию....
IMDB
Сэмпл: http://multi-up.com/1218518
Качество видео: DVDRip (Источник: Torrentc - DVD9)
Формат файла: AVI
Видео: XviD 73, 704x304, (2,35:1), 23,976 fps, 1960 Кбит/с, 8 бит
Аудио: Русский (АС3, 2 ch (Front: L R), 48,0 KHz, 192 Kbps)

MediaInfo

ОбщееПолное имя : G:\Без жалости (вестерн, приключение 1975 год).aviФормат файла : AVIФормат файла/Информация : Audio Video InterleaveРазмер файла : 1,36 ГбайтПродолжительность : 1 ч. 30 м.Общий поток : 2162 Кбит/секПрограмма кодирования : VirtualDubMod 1.5.10.3 | www.virtualdub-fr.org || (build 2550/release)Библиотека кодирования : VirtualDubMod build 2550/release
ВидеоИдентификатор : 0Формат файла : MPEG-4 VisualПрофиль формата : Advanced Simple@L5Параметр BVOP формата : 2Параметр QPel формата : НетПараметр GMC формата : Без точки переходаПараметр матрицы формата : ВыборочнаяИдентификатор кодека : XVIDИдентификатор кодека/Подсказка : XviDПродолжительность : 1 ч. 30 м.Битрейт : 1960 Кбит/секШирина : 704 пикселяВысота : 304 пикселяСоотношение сторон : 2,35:1Частота кадров : 23,976 (24000/1001) кадра/секЦветовое пространство : YUVСубдискретизация насыщенности : 4:2:0Битовая глубина : 8 битТип развёртки : ПрогрессивнаяМетод сжатия : С потерямиБит/(Пиксели*Кадры) : 0.382Размер потока : 1,24 Гбайт (91%)Библиотека кодирования : XviD 73
АудиоИдентификатор : 1Формат файла : AC-3Формат файла/Информация : Audio Coding 3Расширение режима : CM (complete main)Параметр Endianness формата : BigИдентификатор кодека : 2000Продолжительность : 1 ч. 30 м.Вид битрейта : ПостоянныйБитрейт : 192 Кбит/секКаналы : 2 каналаРасположение каналов : Front: L RЧастота : 48,0 КГцЧастота кадров : 31,250 кадров/сек (1536 spf)Метод сжатия : С потерямиРазмер потока : 124 Мбайт (9%)Выравнивание : Разделение по промежуткамПродолжительность промежутка : 42 мс. (1,00 видеокадр)Время предзагрузки промежутка : 500 мс.

Скриншот c названием фильма

Скриншоты



[chi5o.com]_t_5664705.torrent
Торрент: Зарегистрирован ·  [ 2019-01-02 14:11 ] ·  fb56c37773d785ab68356fee00a9988a1e48fa6f

14 KB

Статус: проверено
Скачан: 0 раз
Размер: 1.36 GB
Оценка: 
(Голосов: 0)
Сказали спасибо: 0  Спасибо
Похожие темы
[Профиль]    [ЛС]
Показать сообщения:    
Ответить на тему

Текущее время: Сегодня 12:38

Часовой пояс: GMT + 7



Вы не можете начинать темы
Вы не можете отвечать на сообщения
Вы не можете редактировать свои сообщения
Вы не можете удалять свои сообщения
Вы не можете голосовать в опросах
Вы не можете прикреплять файлы к сообщениям
Вы можете скачивать файлы


Flashpoint | Modern Classical | For Apple iPhone XS Max XR X Front and Back 9H Tempered Glass Screen Protector