Битва за Дженни / Борьба за Дженни / A Fight For Jenny (Жилбер Мозес / Gilber Moses) [1986, США, Мелодрама, драма, VHSRip] AVO (Алексей Михалев)

Ответить на тему
Статистика раздачи [Обновить пиров]
Размер:  1.37 GB   |    Зарегистрирован:  15 дней   |    Скачан:  0 раз

Полного источника не было: Никогда

 
   
 
 
 
Автор Сообщение

chi5o.com

Создавать темы 02-Янв-2019 14:11

[Цитировать]

Битва за Дженни / Борьба за Дженни / A Fight For Jenny
Страна: США
Жанр: Мелодрама, драма
Год выхода: 1986
Продолжительность: 01:36:10
Перевод: Авторский (одноголосый закадровый) Алексей Михалев
Субтитры: нет
Режиссер: Жилбер Мозес / Gilber Moses
В ролях: Филип Майкл Томас, Лесли Энн Уоррен, Жаклин-Роуз Лестер, Джин Смарт, Линн Муди, Барбара Монтгомери, Дрю Снайдер, Уильям Этертон, Чип Арнольд, Мэттью Фэйзон
Описание: Дженни находится под совместной опекой своих разведенных родителей. Келси, мать Дженни, выходит замуж за темнокожего мужчину, Томаса, что приводит в ярость ее бывшего мужа, который полагает, что это не подходящая окружающая среда для их дочери и предъявляет иск на полное исключение бывшей жены из опекунства...
Доп. информация: Оцифровка VHS (личный архив) и получение VHSRip alenavova
Эксклюзив для Torrentc. При размещении данного релиза на других сайтах ссылка на автора alenavova обязательна.


Сэмпл: http://yadi.sk/i/2RsSB-tDApqhXA
Качество видео: VHSRip
Формат файла: AVI
Видео: 704x528 (1.33:1), 25 fps, XviD build 73 ~1833 kbps avg, 0.20 bit/pixel
Аудио: 48 kHz, AC3 Dolby Digital, 2/0 (L,R) ch, ~192 kbps

MediaInfo

Битва за Джени - A Fight For Jenny [y alenavova].aviFormat : AVIFormat/Info : Audio Video InterleaveFile size : 1.37 GiBDuration : 1 h 36 minOverall bit rate : 2 035 kb/sMovie name : Битва за Джени - A Fight For Jenny [y alenavova]Director : by alenavovaWriting application : VirtualDubMod 1.5.10.3 | www.virtualdub-fr.org || (build 2550/release)Copyright : Edich2Comment : Torrentc
VideoID : 0Format : MPEG-4 VisualFormat profile : Advanced Simple@L5Format settings : BVOP1 / Custom MatrixFormat settings, BVOP : 1Format settings, QPel : NoFormat settings, GMC : No warppointsFormat settings, Matrix : CustomCodec ID : XVIDCodec ID/Hint : XviDDuration : 1 h 36 minBit rate : 1 834 kb/sWidth : 704 pixelsHeight : 528 pixelsDisplay aspect ratio : 4:3Frame rate : 25.000 FPSColor space : YUVChroma subsampling : 4:2:0Bit depth : 8 bitsScan type : ProgressiveCompression mode : LossyBits/(Pixel*Frame) : 0.197Stream size : 1.23 GiB (90%)Writing library : XviD 73
AudioID : 1Format : AC-3Format/Info : Audio Coding 3Codec ID : 2000Duration : 1 h 36 minBit rate mode : ConstantBit rate : 192 kb/sChannel(s) : 2 channelsChannel positions : Front: L RSampling rate : 48.0 kHzFrame rate : 31.250 FPS (1536 SPF)Bit depth : 16 bitsCompression mode : LossyStream size : 132 MiB (9%)Alignment : Split accross interleavesInterleave, duration : 40 ms (1.00 video frame)Interleave, preload duratio : 500 msService kind : Complete Main

Скриншоты




[chi5o.com]_t_5664773.torrent
Торрент: Зарегистрирован ·  [ 2019-01-02 14:11 ] ·  b2d310f42765dfc7fb2873351ddfc752b0dfec81

14 KB

Статус: проверено
Скачан: 0 раз
Размер: 1.37 GB
Оценка: 
(Голосов: 0)
Сказали спасибо: 0  Спасибо
Похожие темы
[Профиль]    [ЛС]
Показать сообщения:    
Ответить на тему

Текущее время: Сегодня 13:12

Часовой пояс: GMT + 7



Вы не можете начинать темы
Вы не можете отвечать на сообщения
Вы не можете редактировать свои сообщения
Вы не можете удалять свои сообщения
Вы не можете голосовать в опросах
Вы не можете прикреплять файлы к сообщениям
Вы можете скачивать файлы


Shinbashi no Miko | Wolfram Mathematica 11.0.0 Final x86 | Gate : Jieitai Kanochi Nite Kaku Tatakaeri Season 2 BD Subtitle Indonesia