Дипломники с последнего ряда / Высшая школа / Выпускники последнего класса / Les diplômés du dernier rang (Кристиан Жион / Christian Gion) [1982, Франция, Комедия, DVDRip] VO

Ответить на тему
Статистика раздачи [Обновить пиров]
Размер:  738 MB   |    Зарегистрирован:  15 дней   |    Скачан:  0 раз

Полного источника не было: Никогда

 
   
 
 
 
Автор Сообщение

chi5o.com

Создавать темы 02-Янв-2019 14:11

[Цитировать]

Дипломники с последнего ряда / Высшая школа / Выпускники последнего класса / Les diplômés du dernier rang
Страна: Франция
Жанр: Комедия
Год выхода: 1982
Продолжительность: 01:25:48
Перевод: Одноголосый закадровый
Субтитры: нет
Режиссер: Кристиан Жион / Christian Gion
В ролях: Мишель Галабрю, Мари Лафоре, Патрик Брюэль, Филипп Манесс, Патрис Мине, Анри Гибе,
Шарль Жерар, Соня Варей, Мэгги, Жак Марсаль
Описание: Приключения студентов лоботрясов, попадающих в разные переделки и успешно из них выбирающихся в деле взять от жизни всё.
Доп. информация: Дорожка с VO синхронизирована и наложена ale_x2008 при помощи Sony Vegas и VirtualDubMod.
За оцифрованную с VHS дорожку благодарим - alenavova


Сэмпл: http://yadi.sk/i/m0v2O9jS5Vp27w
Качество видео: DVDRip
Формат файла: AVI
Видео: 704x400 (1.76:1), 25 fps, XviD MPEG-4 ~1001 kbps avg, 0.14 bit/pixel
Аудио: AC3 Dolby Digital, 48000Hz 2/0 (L,R) ch (mono), 192 kbps avg

MediaInfo

Выпускники последнего класса - Les diplômés du dernier rang [by ale_x2008].aviFormat : AVIFormat/Info : Audio Video InterleaveFile size : 738 MiBDuration : 1 h 25 minOverall bit rate : 1 203 kb/sMovie name : Выпускники последнего класса - Les diplomes du dernier rang [by ale_x2008]Director : by alenavovaWriting application : VirtualDubMod 1.5.10.2 (build 2540/release)Copyright : Edich2Comment : Torrentc
VideoID : 0Format : MPEG-4 VisualFormat settings : BVOPFormat settings, BVOP : YesFormat settings, QPel : NoFormat settings, GMC : No warppointsFormat settings, Matrix : Default (MPEG)Codec ID : XVIDCodec ID/Hint : XviDDuration : 1 h 25 minBit rate : 1 001 kb/sWidth : 704 pixelsHeight : 400 pixelsDisplay aspect ratio : 16:9Frame rate : 25.000 FPSColor space : YUVChroma subsampling : 4:2:0Bit depth : 8 bitsScan type : ProgressiveCompression mode : LossyBits/(Pixel*Frame) : 0.142Stream size : 615 MiB (83%)
AudioID : 1Format : AC-3Format/Info : Audio Coding 3Codec ID : 2000Duration : 1 h 25 minBit rate mode : ConstantBit rate : 192 kb/sChannel(s) : 2 channelsChannel positions : Front: L RSampling rate : 48.0 kHzFrame rate : 31.250 FPS (1536 SPF)Bit depth : 16 bitsCompression mode : LossyStream size : 118 MiB (16%)Alignment : Split accross interleavesInterleave, duration : 40 ms (1.00 video frame)Interleave, preload duratio : 500 msService kind : Complete Main

Скриншоты




[chi5o.com]_t_5665425.torrent
Торрент: Зарегистрирован ·  [ 2019-01-02 14:11 ] ·  db6f99f6609ad0c57cb838ef6fc5b3eb713bee96

15 KB

Статус: проверено
Скачан: 0 раз
Размер: 738 MB
Оценка: 
(Голосов: 0)
Сказали спасибо: 0  Спасибо
Похожие темы
[Профиль]    [ЛС]
Показать сообщения:    
Ответить на тему

Текущее время: Сегодня 12:54

Часовой пояс: GMT + 7



Вы не можете начинать темы
Вы не можете отвечать на сообщения
Вы не можете редактировать свои сообщения
Вы не можете удалять свои сообщения
Вы не можете голосовать в опросах
Вы не можете прикреплять файлы к сообщениям
Вы можете скачивать файлы


Interference (2018) Full Movie Watch Online | The Predator | Watch Now