Рядовой Бенджамин / Private Benjamin (Ховард Зифф / Howard Zieff) [1980, США, комедия, военный, DVDRip] [FullScreen] AVO (Виктор Махонько)

Ответить на тему
Статистика раздачи [Обновить пиров]
Размер:  1.37 GB   |    Зарегистрирован:  15 дней   |    Скачан:  0 раз

Полного источника не было: Никогда

 
   
 
 
 
Автор Сообщение

chi5o.com

Создавать темы 02-Янв-2019 14:11

[Цитировать]

Рядовой Бенджамин / Private Benjamin
FullScreen
«The Army was no laughing matter until Judy Benjamin joined it»
Страна: США
Жанр: комедия, военный
Год выхода: 1980
Продолжительность: 01:49:49
Перевод: Авторский (одноголосый закадровый) Виктор Махонько
Субтитры: нет
Режиссер: Ховард Зифф / Howard Zieff
В ролях: Голди Хоун, Айлин Бреннан, Арманд Ассанте, Роберт Уэббер, Сэм Уонамейкер, Барбара Барри, Мэри Кэй Плэйс, Гарри Дин Стэнтон, Альберт Брукс
Описание: После неожиданной смерти мужа в первую брачную ночь скорбящая вдова (Хоун) записывается в американскую армию. После ряда местами смешных приключений, огорчений и побед из "салаги" она превращается в настоящего солдата. Фильм создан под Голди Хоун, которая сама была одним из продюсеров. Вполне можно посмотреть. (Иванов М.)
Доп. информация: Дорожка с В. Махонько синхронизирована и наложена ale_x2008 при помощи Sony Vegas и VirtualDubMod.
За оцифрованную с VHS дорожку благодарим - alenavova


Сэмпл: http://yadi.sk/i/rEkG6ah39xV0TQ
Качество видео: DVDRip
Формат файла: AVI
Видео: XviD build 73, 640x480 (1.33:1), 23.976 fps, 1579 kbps avg, 0.21 bit/pixel
Аудио: AC3 Dolby Digital, 48000Hz 2/0 (L,R) ch (mono), 192 kbps avg

MediaInfo

Рядовой Бенджамин - Private Benjamin (by ale_x2008).aviFormat : AVIFormat/Info : Audio Video InterleaveFile size : 1.37 GiBDuration : 1 h 49 minOverall bit rate : 1 781 kb/sMovie name : Рядовой Бенджамин - Private Benjamin (by ale_x2008)Director : by ale_x2008Writing application : VirtualDubMod 1.5.10.2 (build 2540/release)Copyright : Edich2Comment : Torrentc
VideoID : 0Format : MPEG-4 VisualFormat profile : Advanced Simple@L5Format settings : BVOP1 / Custom MatrixFormat settings, BVOP : 1Format settings, QPel : NoFormat settings, GMC : No warppointsFormat settings, Matrix : CustomCodec ID : XVIDCodec ID/Hint : XviDDuration : 1 h 49 minBit rate : 1 580 kb/sWidth : 640 pixelsHeight : 480 pixelsDisplay aspect ratio : 4:3Frame rate : 23.976 (24000/1001) FPSColor space : YUVChroma subsampling : 4:2:0Bit depth : 8 bitsScan type : ProgressiveCompression mode : LossyBits/(Pixel*Frame) : 0.215Stream size : 1.21 GiB (89%)Writing library : XviD 73
AudioID : 1Format : AC-3Format/Info : Audio Coding 3Codec ID : 2000Duration : 1 h 49 minBit rate mode : ConstantBit rate : 192 kb/sChannel(s) : 2 channelsChannel positions : Front: L RSampling rate : 48.0 kHzFrame rate : 31.250 FPS (1536 SPF)Bit depth : 16 bitsCompression mode : LossyStream size : 151 MiB (11%)Alignment : Split accross interleavesInterleave, duration : 42 ms (1.00 video frame)Interleave, preload duratio : 500 msService kind : Complete Main

Скриншоты




[chi5o.com]_t_5665462.torrent
Торрент: Зарегистрирован ·  [ 2019-01-02 14:11 ] ·  cbc9aab33db7eadb725f550380db8dc1aaa62800

14 KB

Статус: проверено
Скачан: 0 раз
Размер: 1.37 GB
Оценка: 
(Голосов: 0)
Сказали спасибо: 0  Спасибо
Похожие темы
[Профиль]    [ЛС]
Показать сообщения:    
Ответить на тему

Текущее время: Сегодня 13:21

Часовой пояс: GMT + 7



Вы не можете начинать темы
Вы не можете отвечать на сообщения
Вы не можете редактировать свои сообщения
Вы не можете удалять свои сообщения
Вы не можете голосовать в опросах
Вы не можете прикреплять файлы к сообщениям
Вы можете скачивать файлы


Monster High: Electrificadas | x264 killers | 250 graines mix plantes pour aquarium décor