Агент 077, Вызов для убийц / Killers are challenged / A 077, sfida ai killers (Антонио Маргерити / Antonio Margheriti) [1966, Франция, Италия, боевик, DVDRip-AVC] VO (allecs2010)

Ответить на тему
Статистика раздачи [Обновить пиров]
Размер:  2 GB   |    Зарегистрирован:  19 дней   |    Скачан:  0 раз

Полного источника не было: Никогда

 
   
 
 
 
Автор Сообщение

chi5o.com

Создавать темы 02-Янв-2019 14:11

[Цитировать]

Агент 077, Вызов для убийц / Killers are challenged / A 077, sfida ai killers
Страна: Франция, Италия
Жанр: боевик
Год выхода: 1966
Продолжительность: 01:29:16
-
Перевод: Одноголосый закадровый allecs2010
Субтитры: нет
-
Режиссер: Антонио Маргерити / Antonio Margheriti
В ролях: Ричард Харрисон, Сьюзи Андерсен, Вандиса Гвида, Марсель Шарве, Жанин Рейно, Альдо Чеккони
-
Описание: Боб Флеминг, он же агент ЦРУ 077, отправляется в Касабланку под видом ученого Колмана, единственного оставшегося в живых из группы разработчиков альтернативных источников энергии. В Марокко за лже-ученым начинают охоту очаровательные агентши КГБ, работающие под руководством жестокой красавицы Велки. Но неотразимое американское обаяние Боба заставляет русских шпионок одну за другой падать к его ногам, выдавая секреты своей начальницы. Та, впрочем, тоже не дремлет, расставляя агенту 077 одну ловушку за другой.
-
Сэмпл: http://sendfile.su/1464355
-
Качество видео: DVDRip-AVC отсюда http://Torrentc/forum/viewtopic.php?t=5402569
Формат файла: MKV
Видео: AVC, 720x420, 2,40:1, 25,000 fps, 2950 Kbps
Аудио: AC-3, 48,0 КГц, 192 Kbps, Stereo

MediaInfo

C:\Users\ALEX\Desktop\Фильмы\Killers are challenged.A 077 Defie Les Tueurs.1966.RUS.DVDRip-AVC.x264.AC3.mkv General Unique ID : 218381013552202142434792491576592061317 (0xA44AA7408ABD9B35ACAFDC73AC8A5385) Complete name : C:\Users\ALEX\Desktop\Фильмы\Killers are challenged.A 077 Defie Les Tueurs.1966.RUS.DVDRip-AVC.x264.AC3.mkv Format : Matroska Format version : Version 4 / Version 2 File size : 2.00 GiB Duration : 1h 29mn Overall bit rate : 3 206 Kbps Movie name : Killers are challenged / A 077 Defie Les Tueurs Encoded date : UTC 2018-12-19 17:40:30 Writing application : mkvmerge v8.5.2 ('Crosses') 64bit Writing library : libebml v1.3.3 + libmatroska v1.4.4 DURATION : 01:29:16.448000000 NUMBER_OF_FRAMES : 167389 NUMBER_OF_BYTES : 128554752 _STATISTICS_WRITING_APP : mkvmerge v8.5.2 ('Crosses') 64bit _STATISTICS_WRITING_DATE_UTC : 2018-12-19 17:40:30 _STATISTICS_TAGS : BPS DURATION NUMBER_OF_FRAMES NUMBER_OF_BYTES Video #1 ID : 1 Format : AVC Format/Info : Advanced Video Codec Format profile : Main@L4.0 Format settings, CABAC : Yes Format settings, ReFrames : 16 frames Codec ID : V_MPEG4/ISO/AVC Duration : 1h 29mn Bit rate : 2 950 Kbps Width : 720 pixels Height : 420 pixels Display aspect ratio : 2.40:1 Frame rate : 25.000 fps Color space : YUV Chroma subsampling : 4:2:0 Bit depth : 8 bits Scan type : Progressive Bits/(Pixel*Frame) : 0.390 Stream size : 1.84 GiB (92%) Title : Killers are challenged / A 077 Defie Les Tueurs Writing library : x264 core 142 r2479 dd79a61 Encoding settings : cabac=1 / ref=16 / deblock=1:-1:-1 / analyse=0x1:0x131 / me=tesa / subme=11 / psy=1 / psy_rd=1.00:0.15 / mixed_ref=1 / me_range=24 / chroma_me=1 / trellis=2 / 8x8dct=0 / cqm=0 / deadzone=21,11 / fast_pskip=0 / chroma_qp_offset=-3 / threads=24 / lookahead_threads=3 / sliced_threads=0 / nr=0 / decimate=1 / interlaced=0 / bluray_compat=0 / constrained_intra=0 / bframes=16 / b_pyramid=2 / b_adapt=2 / b_bias=0 / direct=3 / weightb=1 / open_gop=0 / weightp=2 / keyint=250 / keyint_min=25 / scenecut=40 / intra_refresh=0 / rc_lookahead=60 / rc=crf / mbtree=1 / crf=18.0 / qcomp=0.60 / qpmin=0 / qpmax=69 / qpstep=4 / vbv_maxrate=20000 / vbv_bufsize=25000 / crf_max=0.0 / nal_hrd=none / filler=0 / ip_ratio=1.40 / aq=1:1.00 DURATION : 01:29:16.000000000 NUMBER_OF_FRAMES : 133900 NUMBER_OF_BYTES : 2016609631 _STATISTICS_WRITING_APP : mkvmerge v8.5.2 ('Crosses') 64bit _STATISTICS_WRITING_DATE_UTC : 2018-12-19 17:40:30 _STATISTICS_TAGS : BPS DURATION NUMBER_OF_FRAMES NUMBER_OF_BYTES Color primaries : BT.470-6 System B, BT.470-6 System G, BT.601-6 625, BT.1358 625, BT.1700 625 PAL, BT.1700 625 SECAM Transfer characteristics : BT.709-5, BT.1361 Matrix coefficients : BT.601-6 525, BT.1358 525, BT.1700 NTSC, SMPTE 170M Audio #2 ID : 2 Format : AC-3 Format/Info : Audio Coding 3 Mode extension : CM (complete main) Codec ID : A_AC3 Duration : 1h 29mn Bit rate mode : Constant Bit rate : 192 Kbps Channel(s) : 2 channels Channel positions : Front: L R Sampling rate : 48.0 KHz Bit depth : 16 bits Compression mode : Lossy Stream size : 123 MiB (6%) Title : VO (allecs2010) Language : Russian

Скриншоты



[chi5o.com]_t_5665928.torrent
Торрент: Зарегистрирован ·  [ 2019-01-02 14:11 ] ·  fbb43473895563d6e533386df53f34bc7b0b2506

21 KB

Статус: проверено
Скачан: 0 раз
Размер: 2 GB
Оценка: 
(Голосов: 0)
Сказали спасибо: 0  Спасибо
Похожие темы
[Профиль]    [ЛС]
Показать сообщения:    
Ответить на тему

Текущее время: Сегодня 16:51

Часовой пояс: GMT + 7



Вы не можете начинать темы
Вы не можете отвечать на сообщения
Вы не можете редактировать свои сообщения
Вы не можете удалять свои сообщения
Вы не можете голосовать в опросах
Вы не можете прикреплять файлы к сообщениям
Вы можете скачивать файлы


Policiaco | „Titans“: Batmans Robin ist jetzt „böse“ – und das ist gut so Kommende Netflix-Serie bringt DC Comics in dunklere Gefilde (29.10.2018) | The walking dead 7x16 2016