Кабан-секач / Секач / Вепрь с хребтом, как бритва / Razorback / Destructor (Рассел Малкэй / Russell Mulcahy) [1984, Австралия, Ужасы, HDRip] AVO (Андрей Гаврилов) + Original Eng

Ответить на тему
Статистика раздачи [Обновить пиров]
Размер:  1.47 GB   |    Зарегистрирован:  15 дней   |    Скачан:  0 раз

Полного источника не было: Никогда

 
   
 
 
 
Автор Сообщение

chi5o.com

Создавать темы 02-Янв-2019 14:11

[Цитировать]

Кабан-секач / Секач / Вепрь с хребтом, как бритва / Razorback / Destructor
«Страшное порождение австралийской пустыни»
Страна: Австралия
Жанр: Ужасы
Год выхода: 1984
Продолжительность: 01:34:50
Перевод: Авторский (одноголосый закадровый) Андрей Гаврилов
Субтитры: нет
Оригинальная аудиодорожка: английский
Режиссер: Рассел Малкэй / Russell Mulcahy
В ролях: Грегори Харрисон, Арки Уайтели, Билл Керр, Крис Хейвуд, Дэвид Арге, Джуди Моррис,
Джон Ховард, Джон Эварт, Дон Смит, Мервин Дрэйк
Описание: Режиссер Расселл Мулкэхи, ранее занимавшийся видео музыкалками, дебютировал этим "ужастиком" по роману Питера Бреннена. Огромный вепрь с хребтом острым, как бритва, в самом начале фильма разворотил чуть ли не весь дом, после чего начался пожар, и пропал ребенок. Деда чуть не посадили в тюрьму за его похищение. 2 года спустя героиня из Нью-Йорка приезжает в этот район Австралии в 600 км. от Сиднея по вопросам ужничтожения кенгуру на мясо для собачьих консервов. Но встретиться ей пришлось отнюдь не с этим сумчатым симпатягой. (Иванов М.)
Доп. информация: Дорожка с А. Гавриловым синхронизирована и наложена ale_x2008 при помощи Adobe Audition, Sony Vegas и VirtualDubMod.
За оцифрованную с VHS дорожку благодарим - alenavova


Сэмпл: http://yadi.sk/i/J9cKAeNw4wfgfw
Качество видео: HDRip [Razorback.1984.BDRip.720p Remastered.mkv]
Формат файла: AVI
Видео: XviD build 73, 720x304 (2.37:1), 23.976 fps, 1816 kbps avg, 0.35 bit/pixel
Аудио: AC3 Dolby Digital, 48000Hz 2/0 (L,R) ch (mono), 192 kbps avg (AVO)
Аудио 2: AC3 Dolby Digital, 48000Hz 2/0 (L,R) ch (stereo), 192 kbps avg (Eng)

MediaInfo

Кабан-секач (Razorback) [by ale_x2008].aviFormat : AVIFormat/Info : Audio Video InterleaveFile size : 1.47 GiBDuration : 1 h 34 minOverall bit rate : 2 215 kb/sMovie name : Кабан-секач (Razorback)Director : HDRip by ale_x2008Genre : HorrorWriting application : VirtualDubMod 1.5.10.3 (build 2550/release)Original source form/Name : MovieCopyright : Edich2Comment : Torrentc
VideoID : 0Format : MPEG-4 VisualFormat profile : Advanced Simple@L5Format settings : BVOP1Format settings, BVOP : 1Format settings, QPel : NoFormat settings, GMC : No warppointsFormat settings, Matrix : Default (MPEG)Codec ID : XVIDCodec ID/Hint : XviDDuration : 1 h 34 minBit rate : 1 817 kb/sWidth : 720 pixelsHeight : 304 pixelsDisplay aspect ratio : 2.35:1Frame rate : 23.976 (24000/1001) FPSColor space : YUVChroma subsampling : 4:2:0Bit depth : 8 bitsScan type : ProgressiveCompression mode : LossyBits/(Pixel*Frame) : 0.346Stream size : 1.20 GiB (82%)Writing library : XviD 73
Audio #1ID : 1Format : AC-3Format/Info : Audio Coding 3Codec ID : 2000Duration : 1 h 34 minBit rate mode : ConstantBit rate : 192 kb/sChannel(s) : 2 channelsChannel positions : Front: L RSampling rate : 48.0 kHzFrame rate : 31.250 FPS (1536 SPF)Bit depth : 16 bitsCompression mode : LossyStream size : 130 MiB (9%)Alignment : Split accross interleavesInterleave, duration : 42 ms (1.00 video frame)Interleave, preload duratio : 500 msService kind : Complete Main
Audio #2ID : 2Format : AC-3Format/Info : Audio Coding 3Codec ID : 2000Duration : 1 h 34 minBit rate mode : ConstantBit rate : 192 kb/sChannel(s) : 2 channelsChannel positions : Front: L RSampling rate : 48.0 kHzFrame rate : 31.250 FPS (1536 SPF)Bit depth : 16 bitsCompression mode : LossyStream size : 130 MiB (9%)Alignment : Split accross interleavesInterleave, duration : 42 ms (1.00 video frame)Interleave, preload duratio : 500 msService kind : Complete Main

Скриншоты




[chi5o.com]_t_5665942.torrent
Торрент: Зарегистрирован ·  [ 2019-01-02 14:11 ] ·  92bd74d2c0f0be3a87434d8fca490d89aa71785d

15 KB

Статус: проверено
Скачан: 0 раз
Размер: 1.47 GB
Оценка: 
(Голосов: 0)
Сказали спасибо: 0  Спасибо
Похожие темы
[Профиль]    [ЛС]
Показать сообщения:    
Ответить на тему

Текущее время: Сегодня 12:44

Часовой пояс: GMT + 7



Вы не можете начинать темы
Вы не можете отвечать на сообщения
Вы не можете редактировать свои сообщения
Вы не можете удалять свои сообщения
Вы не можете голосовать в опросах
Вы не можете прикреплять файлы к сообщениям
Вы можете скачивать файлы


4X Citroen Berlingo C4 C5 C8 Jumper Jumpy Xsara 2.0 Hdi Glow Plug | Journal of Rese arch in Ecology | Late Spring