Альпийские страсти / Alpengluhn im dirndlrock (Зигфрид Роземунд / Sigi Rothemund) [1974, Германия, Эротическая комедия, DVDRip] MVO + VO (женский (c VHS)) + Original Deu

Ответить на тему
Статистика раздачи [Обновить пиров]
Размер:  1.37 GB   |    Зарегистрирован:  15 дней   |    Скачан:  0 раз

Полного источника не было: Никогда

 
   
 
 
 
Автор Сообщение

chi5o.com

Создавать темы 02-Янв-2019 14:11

[Цитировать]

Альпийские страсти / Alpengluhn im dirndlrock
Страна: Германия
Жанр: Эротическая комедия
Год выхода: 1974
Продолжительность: 01:19:34
Перевод 1: Профессиональный (многоголосый закадровый)
Перевод 2: Одноголосый закадровый женский (c VHS) неизвестной Дамы
Субтитры: нет
Оригинальная аудиодорожка: Немецкий
Режиссер: Зигфрид Роземунд / Sigi Rothemund
В ролях: Элизабет Фолькманн, Ринальдо Таламонти , Катарина Конти , Юрген Файндт, Ульрика Бюц, Элизабет Фельшнер , Йорг Нагель и другие
Описание: В деревушке Фогельбрюн пиво течет рекой, погреба ломятся от колбас, а пышные баварские красотки водят хороводы и не прочь позабавиться с местными парнями. И лишь одного не хватает этому альпийскому раю для полного счастья - стать городом. Если скоро здесь не появятся семь новых жителей, не видать деревушке ни туристов, ни деньжат. Местная молодежь, а с ними и похотливые дочки мэра, с удовольствием поддержат ударный почин, но у них есть грозный противник - Лига Высокой Морали. Тем временем, в Фогельбрюн уже едет инкогнито дотошный инспектор, чтобы проверить, готовы ли находчивые баварцы стать горожанами...
Доп. информация: Рип с http://Torrentc/forum/viewtopic.php?t=5665552 при полном наборе всех дорожек включая и оригинальную, в других рипах ее нет.
Источник: Torrentc http://Torrentc/forum/viewtopic.php?t=2514662 -
Сэмпл: http://multi-up.com/1218692
Качество видео: DVDRip
Формат файла: AVI
Видео: XviD 704х448, 25.000 fps, 1 875 Kbps
Аудио 1: Русский (AC3 192 kbps 2 ch 48.0 KHz)
Аудио 2: Русский (AC3 192 kbps 2 ch 48.0 KHz)
Аудио 3: Немецкий (AC3 192 kbps 2 ch 48.0 KHz)

MediaInfo

GeneralComplete name : C:\Documents and Settings\admin\Мои документы\Downloads\Alpengluhn im dirndlrock.aviFormat : AVIFormat/Info : Audio Video InterleaveFile size : 1.37 GiBDuration : 1h 19mnOverall bit rate : 2 462 KbpsWriting application : VirtualDubMod 1.5.4.1 (build 2178/release)Writing library : VirtualDubMod build 2178/release
VideoID : 0Format : MPEG-4 VisualFormat profile : Advanced Simple@L5Format settings, BVOP : NoFormat settings, QPel : NoFormat settings, GMC : No warppointsFormat settings, Matrix : CustomCodec ID : XVIDCodec ID/Hint : XviDDuration : 1h 19mnBit rate : 1 875 KbpsWidth : 704 pixelsHeight : 448 pixelsDisplay aspect ratio : 16:10Frame rate : 25.000 fpsColor space : YUVChroma subsampling : 4:2:0Bit depth : 8 bitsScan type : ProgressiveCompression mode : LossyBits/(Pixel*Frame) : 0.238Stream size : 1.04 GiB (76%)Writing library : XviD 64
Audio #1ID : 1Format : AC-3Format/Info : Audio Coding 3Mode extension : CM (complete main)Format settings, Endianness : BigCodec ID : 2000Duration : 1h 19mnBit rate mode : ConstantBit rate : 192 KbpsChannel(s) : 2 channelsChannel positions : Front: L RSampling rate : 48.0 KHzBit depth : 16 bitsCompression mode : LossyStream size : 109 MiB (8%)Alignment : Split accross interleavesInterleave, duration : 96 ms (2.40 video frames)Interleave, preload duration : 96 ms
Audio #2ID : 2Format : AC-3Format/Info : Audio Coding 3Mode extension : CM (complete main)Format settings, Endianness : BigCodec ID : 2000Duration : 1h 19mnBit rate mode : ConstantBit rate : 192 KbpsChannel(s) : 2 channelsChannel positions : Front: L RSampling rate : 48.0 KHzBit depth : 16 bitsCompression mode : LossyStream size : 109 MiB (8%)Alignment : Split accross interleavesInterleave, duration : 96 ms (2.40 video frames)Interleave, preload duration : 96 ms
Audio #3ID : 3Format : AC-3Format/Info : Audio Coding 3Mode extension : CM (complete main)Format settings, Endianness : BigCodec ID : 2000Duration : 1h 19mnBit rate mode : ConstantBit rate : 192 KbpsChannel(s) : 2 channelsChannel positions : Front: L RSampling rate : 48.0 KHzBit depth : 16 bitsCompression mode : LossyStream size : 109 MiB (8%)Alignment : Split accross interleavesInterleave, duration : 96 ms (2.40 video frames)Interleave, preload duration : 96 ms

Скриншот c названием фильма

Скриншоты



[chi5o.com]_t_5666027.torrent
Торрент: Зарегистрирован ·  [ 2019-01-02 14:11 ] ·  da83c2e7520678a7e02d763c9dd02ca2c2f3bc0b

14 KB

Статус: проверено
Скачан: 0 раз
Размер: 1.37 GB
Оценка: 
(Голосов: 0)
Сказали спасибо: 0  Спасибо
Похожие темы
[Профиль]    [ЛС]
Показать сообщения:    
Ответить на тему

Текущее время: Сегодня 12:43

Часовой пояс: GMT + 7



Вы не можете начинать темы
Вы не можете отвечать на сообщения
Вы не можете редактировать свои сообщения
Вы не можете удалять свои сообщения
Вы не можете голосовать в опросах
Вы не можете прикреплять файлы к сообщениям
Вы можете скачивать файлы


Tölz Bauernstube Antike Entwürfe Tölzer Möbel Bauernmalerei Aus Sammlung Wien | Random Article | ROKO ŽVAIGŽDĖ (2001) / ROCK STAR