Один дома / Home Alone (Крис Коламбус / Chris Columbus) [1990, США, комедия, семейный, VHSRip-AVC] [Fullscreen] DVO (ОРТ) + Original Eng

Ответить на тему
Статистика раздачи [Обновить пиров]
Размер:  1.44 GB   |    Зарегистрирован:  1 месяц 14 дней   |    Скачан:  0 раз

Полного источника не было: Никогда

 
   
 
 
 
Автор Сообщение

chi5o.com

Создавать темы 02-Янв-2019 14:11

[Цитировать]

Один дома / Home Alone / Fullscreen
Страна: США
Жанр: комедия, семейный
Год выхода: 1990
Продолжительность: 01:38:39
Перевод: Профессиональный (двухголосый закадровый) ОРТ
Субтитры: нет
Оригинальная аудиодорожка: английский
Режиссер: Крис Коламбус / Chris Columbus
В ролях: Маколей Калкин, Джо Пеши, Дэниел Стерн, Джон Хёрд, Робертс Блоссом, Кэтрин О’Хара, Джон Кэнди, Анджела Геталс, Девин Рэтрей, Джерри Бэммен, Хиллари Вульф, Ларри Хэнкин
Описание: Американское семейство отправляется из Чикаго в Европу, но в спешке сборов бестолковые родители забывают дома… одного из своих детей. Юное создание, однако, не теряется и демонстрирует чудеса изобретательности. И когда в дом залезают грабители, им приходится не раз пожалеть о встрече с милым крошкой.
Доп. информация: рип взят из темы http://Torrentc/forum/viewtopic.php?t=4471600
Сэмпл: http://yadi.sk/i/vIVeUTL-iYvn_w
Качество видео: VHSRip-AVC
Формат файла: MKV
Видео: AVC, 640х480, 4:3, 25 кадра/сек, ~1700 Kbps
Аудио: (MVO) AC3, 48,0 КГц, 192 Кбит/сек, 2 канала
Аудио 2: (ENG) AC3, 48,0 КГц, 192 Кбит/сек, 2 канала

MediaInfo

GeneralUniqueID : 236908643038482982767996340756417750544 (0xB23AF1E9A1DEEDE3993FADF46DE22610)Complete name : D:\Один дома (1990) Fullscreen.mkvFormat : MatroskaFile size : 1.44 GiBDuration : 1h 38mnOverall bit rate : 2 088 KbpsEncoded date : UTC 2018-12-29 15:53:03Writing application : mkvmerge v6.4.1 ('Omega Point') built on Sep 16 2013 22:05:10Writing library : libebml v1.3.0 + libmatroska v1.4.1
VideoID : 1Format : AVCFormat/Info : Advanced Video CodecFormat profile : High@L4.1Format settings, CABAC : YesFormat settings, ReFrames : 5 framesCodec ID : V_MPEG4/ISO/AVCDuration : 1h 38mnBit rate : 1 700 KbpsWidth : 640 pixelsHeight : 480 pixelsDisplay aspect ratio : 4:3Frame rate : 25.000 fpsColor space : YUVChroma subsampling : 4:2:0Bit depth : 8 bitsScan type : ProgressiveBits/(Pixel*Frame) : 0.221Stream size : 1.15 GiB (80%)Writing library : x264 core 116 r2074 2641b9eEncoding settings : cabac=1 / ref=5 / deblock=1:0:0 / analyse=0x3:0x113 / me=hex / subme=7 / psy=1 / psy_rd=1.00:0.00 / mixed_ref=1 / me_range=16 / chroma_me=1 / trellis=1 / 8x8dct=1 / cqm=0 / deadzone=21,11 / fast_pskip=1 / chroma_qp_offset=-2 / threads=3 / sliced_threads=0 / nr=0 / decimate=1 / interlaced=0 / bluray_compat=0 / constrained_intra=0 / bframes=3 / b_pyramid=2 / b_adapt=1 / b_bias=0 / direct=1 / weightb=1 / open_gop=0 / weightp=2 / keyint=250 / keyint_min=25 / scenecut=40 / intra_refresh=0 / rc_lookahead=40 / rc=abr / mbtree=1 / bitrate=1700 / ratetol=1.0 / qcomp=0.60 / qpmin=0 / qpmax=69 / qpstep=4 / ip_ratio=1.40 / aq=1:1.00
Audio #1ID : 2Format : AC-3Format/Info : Audio Coding 3Mode extension : CM (complete main)Codec ID : A_AC3Duration : 1h 38mnBit rate mode : ConstantBit rate : 192 KbpsChannel(s) : 2 channelsChannel positions : Front: L RSampling rate : 48.0 KHzBit depth : 16 bitsCompression mode : LossyVideo delay : 24msStream size : 136 MiB (9%)Language : Russian
Audio #2ID : 3Format : AC-3Format/Info : Audio Coding 3Mode extension : CM (complete main)Codec ID : A_AC3Duration : 1h 38mnBit rate mode : ConstantBit rate : 192 KbpsChannel(s) : 2 channelsChannel positions : Front: L RSampling rate : 48.0 KHzBit depth : 16 bitsCompression mode : LossyStream size : 136 MiB (9%)Language : English

Скриншот c названием фильма

Скриншоты

Источник: Torrentc

VHSRip - TVRip - BDRip




[chi5o.com]_t_5666719.torrent
Торрент: Зарегистрирован ·  [ 2019-01-02 14:11 ] ·  93ffc5fa56a182948f3a83a79e67921069ca670a

15 KB

Статус: проверено
Скачан: 0 раз
Размер: 1.44 GB
Оценка: 
(Голосов: 0)
Сказали спасибо: 0  Спасибо
Похожие темы
[Профиль]    [ЛС]
Показать сообщения:    
Ответить на тему

Текущее время: Сегодня 17:06

Часовой пояс: GMT + 7



Вы не можете начинать темы
Вы не можете отвечать на сообщения
Вы не можете редактировать свои сообщения
Вы не можете удалять свои сообщения
Вы не можете голосовать в опросах
Вы не можете прикреплять файлы к сообщениям
Вы можете скачивать файлы


Koi to Uso 181 | Mark-Paul Gosselaar | Army Song.mp3