Beyonce - Run the world (Girls) [2011, R\'n\'B / Dance, PromoDVD]

Ответить на тему
Статистика раздачи [Обновить пиров]
Размер:  229 MB   |    Зарегистрирован:  1 месяц 17 дней   |    Скачан:  0 раз

Полного источника не было: Никогда

 
   
 
 
 
Автор Сообщение

chi5o.com

Создавать темы 03-Дек-2018 23:05

[Цитировать]

Beyonce - Run the world (Girls)
Страна: USA
Жанр: R'n'B / Dance
Продолжительность: 00:04:50
Год выхода: 2011
Источник: скачано из сети
Качество: DVD
Формат файла: VOB
Видео кодек: MPEG2
Аудиокодек: PCM
Видео: MPEG2 Video 720x480 (4:3) 8000kbps 29.97fps
Аудио: LPCM 1536kbps 48000Hz stereo
Описание: Видеоклип на первый сингл с нового альбома Beyonce под названием "4", уже появившегося в сети.

MediaInfo

GeneralComplete name : C:\Documents and Settings\Admin\Мои документы\Torrents\Beyonce - Run the world (Girls).VOBFormat : MPEG-PSFile size : 229 MiBDuration : 4mn 50sOverall bit rate : 6 608 KbpsWriting library : encoded by TMPGEnc 4.0 XPress Version. 4.2.3.193
VideoID : 224 (0xE0)Format : MPEG VideoFormat version : Version 2Format profile : Main@MainFormat settings, BVOP : YesFormat settings, Matrix : DefaultDuration : 4mn 50sBit rate mode : VariableBit rate : 4 941 KbpsNominal bit rate : 8 000 KbpsWidth : 720 pixelsHeight : 480 pixelsDisplay aspect ratio : 4:3Frame rate : 29.970 fpsStandard : NTSCColor space : YUVChroma subsampling : 4:2:0Bit depth : 8 bitsScan type : InterlacedScan order : Top Field FirstCompression mode : LossyBits/(Pixel*Frame) : 0.477Stream size : 171 MiB (75%)Writing library : TMPGEnc XPress 4.2.3.193
AudioID : 189 (0xBD)-160 (0xA0)Format : PCMFormat settings, Endianness : BigFormat settings, Sign : SignedMuxing mode : DVD-VideoDuration : 4mn 49sBit rate mode : ConstantBit rate : 1 536 KbpsChannel(s) : 2 channelsChannel positions : Front: L RSampling rate : 48.0 KHzBit depth : 16 bitsStream size : 53.1 MiB (23%)

Скриншоты



[chi5o.com]_t_3611302.torrent
Торрент: Зарегистрирован ·  [ 2018-12-03 23:02 ] ·  26e40c3125661144be983c21221d0403a826f7fc

18 KB

Статус: проверено
Скачан: 0 раз
Размер: 229 MB
Оценка: 
(Голосов: 0)
Сказали спасибо: 0  Спасибо
Похожие темы
[Профиль]    [ЛС]
Показать сообщения:    
Ответить на тему

Текущее время: Сегодня 17:30

Часовой пояс: GMT + 7



Вы не можете начинать темы
Вы не можете отвечать на сообщения
Вы не можете редактировать свои сообщения
Вы не можете удалять свои сообщения
Вы не можете голосовать в опросах
Вы не можете прикреплять файлы к сообщениям
Вы можете скачивать файлы


minecraft pocket edition | God of War 4 Collector's - 2 Huldra Brother Carvings (Unopened) | How It Ends 2018 English 720p WEB-DL 900MB ESubs