Солан и Людвиг: Сырная гонка / Solan og Ludvig: Herfra til Flåklypa (Расмус А. Сивертсен / Rasmus A. Sivertsen) [2015, Норвегия, мультфильм, семейный, BDRip] Dub (Первый канал) + VO (Телеканал ETV+) + original Nor

Ответить на тему
Статистика раздачи [Обновить пиров]
Размер:  1.45 GB   |    Зарегистрирован:  2 месяца 10 дней   |    Скачан:  0 раз

Полного источника не было: Никогда

 
   
 
 
 
Автор Сообщение

chi5o.com

Создавать темы 13-Ноя-2018 01:34

[Цитировать]

Солан и Людвиг: Сырная гонка / Solan og Ludvig: Herfra til Flåklypa
[img=right]http://i5.imageban.ru/out/2018/01/12/29114e22c77b4...386b1b.jpg[/img]
Страна: Норвегия
Жанр: мультфильм, семейный
Продолжительность: 01:18:22
Год выхода: 2015
Перевод: Профессиональный (дублированный) - Первый канал
Перевод: Студийный (одноголосый закадровый) - Телеканал ETV+
Русские субтитры: нет
Оригинальная дорожка: норвежский

Режиссёр: Расмус А. Сивертсен / Rasmus A. Sivertsen
Роли озвучивали: Джон Ф.Брюно, Андерс Бай, Каре Конради, Фредрик Эгеберг, Кари Анн Грёнсунд, Бьярте Хьелмеланд, Тронд Хёвик, Мадс Иверсен, Скотт Морстад, Якоб Офтебро
Описание: Солан — отличный селезень: храбрец, трудяга и хороший друг, живущий на ферме добродушного изобретателя Реодора вместе с милым, но застенчивым и слегка трусоватым ёжиком Людвигом. Но вот беда: Солан — заядлый, неисправимый спорщик, которого ничто не стоит развести на «слабо». Так поступает Ольвар, хитроумный владелец сыроварни из соседнего городка — и вот неистовый Солан уже готов воскресить старинный обычай — сырную гонку по темным лесам и высоким горам, поставив на кон всё движимое и недвижимое имущество. Причем не только свое…
Семпл
Качество: BDRip
Формат файла: AVI
Видео: 704x400 (1.76:1), 24 fps, XviD MPEG-4 ~1791 kbps avg, 0.27 bit/pixel
Аудио: 48 kHz, AC3 Dolby Digital, 2/0 (L,R) ch, ~192 kbps - дубляж
Аудио: 48 kHz, AC3 Dolby Digital, 2/0 (L,R) ch, ~192 kbps - одноголосый
Аудио: 48 kHz, AC3 Dolby Digital, 3/2 (L,C,R,l,r) + LFE ch, ~448 kbps - оригинал
Субтитры: отсутствуют

Подробные технические данные

GeneralComplete name : H:\Solan.og.Ludvig_Herfra.til.Flaklypa.2015.bdrip_[1.46]_[teko].aviFormat : AVIFormat/Info : Audio Video InterleaveFile size : 1.45 GiBDuration : 1h 18mnOverall bit rate : 2 643 KbpsWriting application : VirtualDubMod 1.5.10.3 | www.virtualdub-fr.org || (build 2550/release)Writing library : VirtualDubMod build 2550/release
VideoID : 0Format : MPEG-4 VisualFormat profile : Advanced Simple@L5Format settings, BVOP : 2Format settings, QPel : NoFormat settings, GMC : No warppointsFormat settings, Matrix : CustomCodec ID : XVIDCodec ID/Hint : XviDDuration : 1h 18mnBit rate : 1 793 KbpsWidth : 704 pixelsHeight : 400 pixelsDisplay aspect ratio : 16:9Frame rate : 24.000 fpsColor space : YUVChroma subsampling : 4:2:0Bit depth : 8 bitsScan type : ProgressiveCompression mode : LossyBits/(Pixel*Frame) : 0.265Stream size : 1 005 MiB (68%)Writing library : XviD 73
Audio #1ID : 1Format : AC-3Format/Info : Audio Coding 3Mode extension : CM (complete main)Format settings, Endianness : BigCodec ID : 2000Duration : 1h 18mnBit rate mode : ConstantBit rate : 192 KbpsChannel(s) : 2 channelsChannel positions : Front: L RSampling rate : 48.0 KHzFrame rate : 31.250 fps (1536 spf)Compression mode : LossyStream size : 108 MiB (7%)Alignment : Split accross interleavesInterleave, duration : 42 ms (1.00 video frame)Interleave, preload duratio : 500 ms
Audio #2ID : 2Format : AC-3Format/Info : Audio Coding 3Mode extension : CM (complete main)Format settings, Endianness : BigCodec ID : 2000Duration : 1h 18mnBit rate mode : ConstantBit rate : 192 KbpsChannel(s) : 2 channelsChannel positions : Front: L RSampling rate : 48.0 KHzFrame rate : 31.250 fps (1536 spf)Compression mode : LossyStream size : 108 MiB (7%)Alignment : Split accross interleavesInterleave, duration : 42 ms (1.00 video frame)Interleave, preload duratio : 500 ms
Audio #3ID : 3Format : AC-3Format/Info : Audio Coding 3Mode extension : CM (complete main)Format settings, Endianness : BigCodec ID : 2000Duration : 1h 18mnBit rate mode : ConstantBit rate : 448 KbpsChannel(s) : 6 channelsChannel positions : Front: L C R, Side: L R, LFESampling rate : 48.0 KHzFrame rate : 31.250 fps (1536 spf)Compression mode : LossyStream size : 251 MiB (17%)Alignment : Split accross interleavesInterleave, duration : 42 ms (1.00 video frame)Interleave, preload duratio : 500 ms
:--


[chi5o.com]_t_5639230.torrent
Торрент: Зарегистрирован ·  [ 2018-11-13 01:34 ] ·  bdd60b52f4e88435acfedf34687b35f2d057a540

15 KB

Статус: проверено
Скачан: 0 раз
Размер: 1.45 GB
Оценка: 
(Голосов: 0)
Сказали спасибо: 0  Спасибо
Похожие темы
[Профиль]    [ЛС]
Показать сообщения:    
Ответить на тему

Текущее время: Сегодня 02:29

Часовой пояс: GMT + 7



Вы не можете начинать темы
Вы не можете отвечать на сообщения
Вы не можете редактировать свои сообщения
Вы не можете удалять свои сообщения
Вы не можете голосовать в опросах
Вы не можете прикреплять файлы к сообщениям
Вы можете скачивать файлы


Captulo 140 : ¡Habitantes de Nunca Jamás! ¡La banda pirata Pumpkin! | SkymoviesHd Org - Thugs of Hindostan (2018) Hindi PerDVDRip x264 AAC Bollywood Movie 720p [750MB] | Pulp Fiction