Пришельцы в доме / Luis and His Friends from Outer Space (Кристоф Лауэнштайн / Christoph Lauenstein) [2018, Германия, Люксембург, Дания, мультфильм, фантастика, комедия, приключения, WEB-DLRip] [Локализованный видеоряд] Dub (iTunes)

Ответить на тему
Статистика раздачи [Обновить пиров]
Размер:  1.46 GB   |    Зарегистрирован:  2 месяца 10 дней   |    Скачан:  0 раз

Полного источника не было: Никогда

 
   
 
 
 
Автор Сообщение

chi5o.com

Создавать темы 13-Ноя-2018 01:34

[Цитировать]

Пришельцы в доме / Luis and His Friends from Outer Space
[img=right]http://i1.imageban.ru/out/2018/11/08/098d7ccde6c38...e82843.jpg[/img]
Страна: Германия, Люксембург, Дания
Жанр: мультфильм, фантастика, комедия, приключения
Год выхода: 2018
Продолжительность: 01:25:34-Перевод: Профессиональный (дублированный) | iTunes
Субтитры: нет
Оригинальная аудиодорожка: нет-Режиссёр: Кристоф Лауэнштайн / Christoph Lauenstein, Вольфганг Лауэнштайн / Wolfgang Lauenstein, Шон МакКормак / Sean McCormack-В ролях: Каллум Малони, Дермот Магеннис, Йен Коппингер, Пол Тайлак, Люси Кэролан, Эйн Дэйли, Эйлин Митен, Саймон Тоул, Данна Дэвис, Сьюзи Пауэр-Описание: У 12-летнего Луиса нет друзей, а у его отца постоянно не хватает на него времени. Тот страстно увлечен уфологией и даже не догадывается, что те, кого он так жаждет найти, находятся прямо у него перед носом. Луис становится единственным свидетелем аварийной посадки трех чудаковатых инопланетян рядом с их домом. Троица пришельцев быстро находит общий язык с мальчиком. Они ведут себя точь-в-точь как озорные подростки, и обладают к тому же совершенно удивительной способностью — перевоплощаться в любое живое существо. Луис еще никогда так не веселился, как рядом с ними. Но он быстро понимает, что если взрослые узнают о его тайне, ничем хорошим это не закончится. Поэтому он решает помочь им починить тарелку и улететь вместе с ними…-Качество: WEB-DLRip
Формат файла: AVI
Видео: 704x384 (1.83:1), 24.000 fps, XviD build 73 ~2041 kbps avg, 0.31 bit/pixel
Аудио: 48 kHz, AC3 Dolby Digital, 3/2 (L,C,R,l,r) + LFE ch, ~384 kbps-

Сэмпл-

MediaInfo

Формат файла                                   : AVI
Формат файла/Информация                        : Audio Video Interleave
Размер файла                             : 1,46 Гбайт
Продолжительность                        : 1 ч. 25 м.
Общий поток                              : 2435 Кбит/сек
Программа кодирования                    : VirtualDubMod 1.5.10.3 | www.virtualdub-fr.org || (build 2550/release)
Библиотека кодирования                   : VirtualDubMod build 2550/release
Видео
Идентификатор                            : 0
Формат файла                                   : MPEG-4 Visual
Профиль формата                          : Advanced Simple@L5
Настройки формата                        : BVOP1 / Custom Matrix
Параметр BVOP формата                    : 1
Параметр QPel формата                    : Нет
Параметр GMC формата                     : Без точки перехода
Параметр матрицы формата                 : Выборочная
Идентификатор кодека                     : XVID
Идентификатор кодека/Подсказка           : XviD
Продолжительность                        : 1 ч. 25 м.
Битрейт                                  : 2041 Кбит/сек
Ширина                                   : 704 пикселя
Высота                                   : 384 пикселя
Соотношение сторон                       : 1,85:1
Частота кадров                           : 24,000 кадра/сек
Цветовое пространство                    : YUV
Субдискретизация насыщенности            : 4:2:0
Битовая глубина                          : 8 бит
Тип развёртки                            : Прогрессивная
Метод сжатия                             : С потерями
Бит/(Пиксели*Кадры)                      : 0.315
Размер потока                            : 1,22 Гбайт (84%)
Библиотека кодирования                   : XviD 73
Аудио
Идентификатор                            : 1
Формат файла                                   : AC-3
Формат файла/Информация                        : Audio Coding 3
Коммерческое название                    : Dolby Digital
Идентификатор кодека                     : 2000
Продолжительность                        : 1 ч. 25 м.
Вид битрейта                             : Постоянный
Битрейт                                  : 384 Кбит/сек
Каналы                                   : 6 каналов
Channel layout                           : L R C LFE Ls Rs
Частота                                  : 48,0 КГц
Частота кадров                           : 31,250 кадров/сек (1536 SPF)
Битовая глубина                          : 16 бит
Метод сжатия                             : С потерями
Размер потока                            : 235 Мбайт (16%)
Выравнивание                             : Разделение по промежуткам
Продолжительность промежутка             : 42  мс. (1,00 видеокадр)
Время предзагрузки промежутка            : 500  мс.
ServiceKind/String                       : Complete Main


[chi5o.com]_t_5641394.torrent
Торрент: Зарегистрирован ·  [ 2018-11-13 01:34 ] ·  d10258e5a25b299b1a8ce57f409f78323ac19b5a

15 KB

Статус: проверено
Скачан: 0 раз
Размер: 1.46 GB
Оценка: 
(Голосов: 0)
Сказали спасибо: 0  Спасибо
Похожие темы
[Профиль]    [ЛС]
Показать сообщения:    
Ответить на тему

Текущее время: Сегодня 02:13

Часовой пояс: GMT + 7



Вы не можете начинать темы
Вы не можете отвечать на сообщения
Вы не можете редактировать свои сообщения
Вы не можете удалять свои сообщения
Вы не можете голосовать в опросах
Вы не можете прикреплять файлы к сообщениям
Вы можете скачивать файлы


Películas en general | CorningWare | Running Man Episode 135