В поисках йети / Миссия Катманду: Приключения Нелли и Саймона / Mission Kathmandu: The Adventures of Nelly & Simon (Пьер Греко / Pierre Greco, Нэнси Севард / Nancy Florence Savard) [2017, Канада, комедия, приключения, WEB-DLRip] Dub (iTunes)

Ответить на тему
Статистика раздачи [Обновить пиров]
Размер:  1.46 GB   |    Зарегистрирован:  2 месяца 26 дней   |    Скачан:  0 раз

Полного источника не было: Никогда

 
   
 
 
 
Автор Сообщение

chi5o.com

Создавать темы 27-Окт-2018 20:31

[Цитировать]

В поисках йети / Миссия Катманду: Приключения Нелли и Саймона / Mission Kathmandu: The Adventures of Nelly & Simon
[img=right]http://i6.imageban.ru/out/2018/10/23/0ebd9381db5c9...a27b7b.png[/img]
Страна: Канада
Жанр: мультфильм, комедия, приключения
Год выхода: 2017
Продолжительность: 01:24:10-Перевод: Профессиональный (дублированный) | iTunes
Субтитры: нет
Оригинальная аудиодорожка: нет-Режиссер: Пьер Греко / Pierre Greco, Нэнси Севард / Nancy Florence Savard-В ролях: Сильви Моро, Гийом Леме-Тивьерж, Рашид Бадури, Александрина Уоррен, Stephane Crete, Эдгар Фруатье, Себастьен Бенуа, Бертран Ален, Simon-Pierre Gariépy, Мартин Бойли-Описание: Увлекательные приключения частного детектива Нелли и ботаника-ученого Саймона, которые искренне верят в существование снежного человека Йети.
Чтобы доказать, что мифический зверь существует, исследователям придется отправиться в самое сердце Гималаев и найти его!-Качество видео: WEB-DLRip
Формат файла: AVI
Видео: 720x384 (1.88:1), 23.976 fps, XviD build 73 ~2081 kbps avg, 0.31 bit/pixel
Аудио: 48 kHz, AC3 Dolby Digital, 3/2 (L,C,R,l,r) + LFE ch, ~384 kbps-

Сэмпл-

MediaInfo

Формат файла                                   : AVI
Формат файла/Информация                        : Audio Video Interleave
Размер файла                             : 1,46 Гбайт
Продолжительность                        : 1 ч. 24 м.
Общий поток                              : 2475 Кбит/сек
Программа кодирования                    : VirtualDubMod 1.5.10.3 | www.virtualdub-fr.org || (build 2550/release)
Библиотека кодирования                   : VirtualDubMod build 2550/release
Видео
Идентификатор                            : 0
Формат файла                                   : MPEG-4 Visual
Профиль формата                          : Advanced Simple@L5
Настройки формата                        : BVOP1 / Custom Matrix
Параметр BVOP формата                    : 1
Параметр QPel формата                    : Нет
Параметр GMC формата                     : Без точки перехода
Параметр матрицы формата                 : Выборочная
Идентификатор кодека                     : XVID
Идентификатор кодека/Подсказка           : XviD
Продолжительность                        : 1 ч. 24 м.
Битрейт                                  : 2082 Кбит/сек
Ширина                                   : 720 пикселей
Высота                                   : 384 пикселя
Соотношение сторон                       : 1,85:1
Частота кадров                           : 23,976 (24000/1001) кадра/сек
Цветовое пространство                    : YUV
Субдискретизация насыщенности            : 4:2:0
Битовая глубина                          : 8 бит
Тип развёртки                            : Прогрессивная
Метод сжатия                             : С потерями
Бит/(Пиксели*Кадры)                      : 0.314
Размер потока                            : 1,22 Гбайт (84%)
Библиотека кодирования                   : XviD 73
Аудио
Идентификатор                            : 1
Формат файла                                   : AC-3
Формат файла/Информация                        : Audio Coding 3
Коммерческое название                    : Dolby Digital
Идентификатор кодека                     : 2000
Продолжительность                        : 1 ч. 24 м.
Вид битрейта                             : Постоянный
Битрейт                                  : 384 Кбит/сек
Каналы                                   : 6 каналов
Channel layout                           : L R C LFE Ls Rs
Частота                                  : 48,0 КГц
Частота кадров                           : 31,250 кадров/сек (1536 SPF)
Битовая глубина                          : 16 бит
Метод сжатия                             : С потерями
Размер потока                            : 231 Мбайт (16%)
Выравнивание                             : Разделение по промежуткам
Продолжительность промежутка             : 42  мс. (1,00 видеокадр)
Время предзагрузки промежутка            : 500  мс.
ServiceKind/String                       : Complete Main


[chi5o.com]_t_5633097.torrent
Торрент: Зарегистрирован ·  [ 2018-10-27 20:30 ] ·  d5c8d2d043eaf936cc4b720064d0906a113b4d9d

15 KB

Статус: проверено
Скачан: 0 раз
Размер: 1.46 GB
Оценка: 
(Голосов: 0)
Сказали спасибо: 0  Спасибо
Похожие темы
[Профиль]    [ЛС]
Показать сообщения:    
Ответить на тему

Текущее время: Сегодня 02:50

Часовой пояс: GMT + 7



Вы не можете начинать темы
Вы не можете отвечать на сообщения
Вы не можете редактировать свои сообщения
Вы не можете удалять свои сообщения
Вы не можете голосовать в опросах
Вы не можете прикреплять файлы к сообщениям
Вы можете скачивать файлы


Headsets | I Still See You | Ben Miller