Суперсемейка 2 / Incredibles 2 (Брэд Бёрд / Brad Bird) [2018, США, мультфильм, фантастика, боевик, комедия, приключения, семейный, WEB-DLRip] Dub (iTunes)

Ответить на тему
Статистика раздачи [Обновить пиров]
Размер:  1.46 GB   |    Зарегистрирован:  2 месяца 26 дней   |    Скачан:  0 раз

Полного источника не было: Никогда

 
   
 
 
 
Автор Сообщение

chi5o.com

Создавать темы 27-Окт-2018 20:31

[Цитировать]

Суперсемейка 2 / Incredibles 2-[img=right]http://i6.imageban.ru/out/2018/10/25/8022d5e6adc1e...0621e0.png[/img]
Год выхода: 2018
Выпущено: США / Pixar Animation Studios, Walt Disney Pictures
Жанр: мультфильм, фантастика, боевик, комедия, приключения, семейный
Продолжительность: 01:57:49
Перевод: Профессиональный (полное дублирование)
Субтитры: нет-Режиссер:
Брэд Бёрд / Brad Bird-В ролях:
Крэйг Т. Нельсон, Холли Хантер, Сара Вауэлл, Хак Милнер, Кэтрин Кинер, Илай Фучиле, Боб Оденкёрк, Сэмюэл Л. Джексон, Майкл Бёрд, София Буш-О фильме:
После событий первой части суперсемейка пользуется повышенным вниманием со стороны журналистов. Неожиданно оказалось, что обаятельная Миссис Исключительная гораздо лучше смотрится на экране телевизора, чем её муж. Мистеру Исключительному все чаще приходится сидеть дома и приглядывать за детьми, у каждого из которых есть свои причины быть недовольным собственными суперспособностями. Однако семейным проблемам предстоит отступить на второй план, когда окажется, что спокойствию Суперсемейки угрожает новый могущественный враг.-
| | IMDB | КиноПоиск | Сэмпл |-Качество: WEB-DLRip [Incredibles.2.2018.1080p.WEB-DL.DD5.1.H264-FGT]
Формат файла: AVI
Видео: 720x304 (2.37:1), 23.976 fps, XviD build 67 ~1377 kbps avg, 0.26 bit/pixel
Аудио: 48 kHz, AC3 Dolby Digital, 3/2 (L,C,R,l,r) + LFE ch, ~384 kbps avg - iTunes Russia-
[img]http://i3.imageban.ru/thumbs/2018.10.25/3e7a7810870ae848b5ef55b2c7d9ccf8.jpg[/img]-[img]http://i1.imageban.ru/thumbs/2018.10.25/11c14442d6a5db4272d5b1d229bb510f.jpg[/img][img]http://i6.imageban.ru/thumbs/2018.10.25/d889091f10746702afbb2245e66db0aa.jpg[/img][img]http://i4.imageban.ru/thumbs/2018.10.25/b3db5430fc618225072effc91036d976.jpg[/img][img]http://i4.imageban.ru/thumbs/2018.10.25/5575ba785d7f8e074e48b193cf97324b.jpg[/img]MediaInfo">

Скриншоты[img]http://i3.imageban.ru/thumbs/2018.10.25/3e7a7810870ae848b5ef55b2c7d9ccf8.jpg[/img]-[img]http://i1.imageban.ru/thumbs/2018.10.25/11c14442d6a5db4272d5b1d229bb510f.jpg[/img][img]http://i6.imageban.ru/thumbs/2018.10.25/d889091f10746702afbb2245e66db0aa.jpg[/img][img]http://i4.imageban.ru/thumbs/2018.10.25/b3db5430fc618225072effc91036d976.jpg[/img][img]http://i4.imageban.ru/thumbs/2018.10.25/5575ba785d7f8e074e48b193cf97324b.jpg[/img]MediaInfo

Общее
Полное имя                               : D:\Supersemeika_2_2018_WEB-DLRip_iT_by_Dalemake.avi
Формат файла                                   : AVI
Формат файла/Информация                        : Audio Video Interleave
Размер файла                             : 1,46 Гбайт
Продолжительность                        : 1 ч. 57 м.
Общий поток                              : 1771 Кбит/сек
Программа кодирования                    : VirtualDubMod 1.5.10.3 | www.virtualdub-fr.org || (build 2550/release)
Библиотека кодирования                   : VirtualDubMod build 2550/release
Видео
Идентификатор                            : 0
Формат файла                                   : MPEG-4 Visual
Профиль формата                          : Advanced Simple@L5
Параметр BVOP формата                    : 1
Параметр QPel формата                    : Нет
Параметр GMC формата                     : Без точки перехода
Параметр матрицы формата                 : Выборочная
Идентификатор кодека                     : XVID
Идентификатор кодека/Подсказка           : XviD
Продолжительность                        : 1 ч. 57 м.
Битрейт                                  : 1377 Кбит/сек
Ширина                                   : 720 пикселей
Высота                                   : 304 пикселя
Соотношение сторон                       : 2,35:1
Частота кадров                           : 23,976 кадра/сек
Цветовое пространство                    : YUV
Субдискретизация насыщенности            : 4:2:0
Битовая глубина                          : 8 бит
Тип развёртки                            : Прогрессивная
Метод сжатия                             : С потерями
Бит/(Пиксели*Кадры)                      : 0.262
Размер потока                            : 1,13 Гбайт (78%)
Библиотека кодирования                   : XviD 67
Аудио
Идентификатор                            : 1
Формат файла                                   : AC-3
Формат файла/Информация                        : Audio Coding 3
Расширение режима                        : CM (complete main)
Параметр Endianness формата              : Big
Идентификатор кодека                     : 2000
Продолжительность                        : 1 ч. 57 м.
Вид битрейта                             : Постоянный
Битрейт                                  : 384 Кбит/сек
Каналы                                   : 6 каналов
Расположение каналов                     : Front: L C R, Side: L R, LFE
Частота                                  : 48,0 КГц
Битовая глубина                          : 16 бит
Метод сжатия                             : С потерями
Размер потока                            : 324 Мбайт (22%)
Выравнивание                             : Разделение по промежуткам
Продолжительность промежутка             : 42  мс. (1,00 видеокадр)
Время предзагрузки промежутка            : 500  мс.
-


[chi5o.com]_t_5634450.torrent
Торрент: Зарегистрирован ·  [ 2018-10-27 20:30 ] ·  62a5d039782c02fe8d9ae951de282b22caa21fa1

15 KB

Статус: проверено
Скачан: 0 раз
Размер: 1.46 GB
Оценка: 
(Голосов: 0)
Сказали спасибо: 0  Спасибо
Похожие темы
[Профиль]    [ЛС]
Показать сообщения:    
Ответить на тему

Текущее время: Сегодня 02:04

Часовой пояс: GMT + 7



Вы не можете начинать темы
Вы не можете отвечать на сообщения
Вы не можете редактировать свои сообщения
Вы не можете удалять свои сообщения
Вы не можете голосовать в опросах
Вы не можете прикреплять файлы к сообщениям
Вы можете скачивать файлы


Merry & Bright | strapless chevron maxi dress wholesale | Keeping Up With the Kardashians S12E11 Got MILF HDTV x264-CRiMSOn[PRiME]