Приключения Пиноккио / The Adventures of Pinocchio (Джим Терри / Jim Terry, Ипеи Кури / Ippei Kuri) [США, Япония, мультфильм, сказка, приключения, VHSRip > DVD] MVO (Мосфильм)

Ответить на тему
Статистика раздачи [Обновить пиров]
Размер:  4.34 GB   |    Зарегистрирован:  3 месяца 9 дней   |    Скачан:  0 раз

Полного источника не было: Никогда

 
   
 
 
 
Автор Сообщение

chi5o.com

Создавать темы 13-Окт-2018 19:14

[Цитировать]

Приключения Пиноккио / The Adventures of Pinocchio-[img=right]http://i5.imageban.ru/out/2018/10/06/1069b3f536392...3258be.jpg[/img]
Страна: Япония, США
Жанр: мультфильм, сказка, приключения
Год выхода: 1984
Продолжительность: 01:38:50-Перевод: Профессиональный (многоголосый закадровый) - Киностудия "Мосфильм" по заказу ВПТО "Видеофильм", 1988г.
Субтитры: нет-Режиссер: Джим Терри / Jim Terry, Ипеи Кури / Ippei Kuri- | : [img]http://static.t-ru.org/ranks/rg_mult.gif[/img]-Описание: Эта история о мастере Джепетто, который вырезал из дубовой ветки куклу, чтобы деревяшка стала настоящим мальчиком, который мог бы быть сыном для одинокого Джепетто. И вот, поздно ночью в дом к мастеру прилетает Фея. Ей жаль старого доброго Джепетто, и она осуществляет его мечту: кукла превращается в маленького мальчика. Мастер называет его Пиноккио и решает отправить в школу. Попав в город, Пиноккио сразу замечает красочное объявление о шоу марионеток. Это завораживает мальчика. А загадочный незнакомец Франко предлагает ему продать учебники для того, чтобы купить билет на шоу. Пиноккио соглашается, и хозяин марионеток радушно предлагает шустрому мальчику поучаствовать в спектакле. Но после шоу незнакомец не отпускает героя, а запирает вместе с остальными марионетками... Пиноккио не знает как выбраться из плена, он очень скучает по своему отцу Джепетто... Кто же поможет Пиноккио? Неужели он навсегда останется в плену у злого хозяина?-Доп. информация: Оцифровка видеокассеты "Госкино СССР" - xfiles.-Семпл: http://sendfile.su/1446754-Тип релиза: VHSRip
Формат файла: DVD-Video
Видео: PAL 720x576 (4:3) @ 768x576, 25.000 fps, MPEG-2 Video, ~5400 Kbps, 0.521 bits/pixel
Аудио: Русский, 48.0 KHz, PCM, 1 ch, 768 Kbps

DVDInfo

Title: The Adventures of Pinocchio 1984 VHSRipSize: 4.34 Gb ( 4 550 990,00 KBytes ) - DVD-5Enabled regions: 1, 2, 3, 4, 5, 6, 7, 8
VTS_01 : Play Length: 01:38:50 Video: PAL 4:3 (720x576) VBR Audio: Russian (LinearPCM, 1 ch)

MediaInfo

GeneralComplete name : \The Adventures of Pinocchio 1984 VHSRip\VIDEO_TS\VTS_01_1.VOBFormat : MPEG-PSFile size : 1 024 MiBDuration : 22 min 46 sOverall bit rate mode : VariableOverall bit rate : 6 286 kb/s
VideoID : 224 (0xE0)Format : MPEG VideoFormat version : Version 2Format profile : Main@MainFormat settings : CustomMatrix / BVOPFormat settings, BVOP : YesFormat settings, Matrix : CustomFormat settings, GOP : VariableFormat settings, picture structure : FrameDuration : 22 min 46 sBit rate mode : VariableBit rate : 5 400 kb/sWidth : 720 pixelsHeight : 576 pixelsDisplay aspect ratio : 4:3Frame rate : 25.000 FPSStandard : PALColor space : YUVChroma subsampling : 4:2:0Bit depth : 8 bitsScan type : InterlacedScan order : Top Field FirstCompression mode : LossyBits/(Pixel*Frame) : 0.521Time code of first frame : 00:00:00:00Time code source : Group of pictures headerGOP, Open/Closed : OpenGOP, Open/Closed of first frame : ClosedStream size : 879 MiB (86%)
AudioID : 189 (0xBD)-160 (0xA0)Format : PCMFormat settings : Big / SignedMuxing mode : DVD-VideoDuration : 22 min 46 sBit rate mode : ConstantBit rate : 768 kb/sChannel(s) : 1 channelChannel layout : CSampling rate : 48.0 kHzBit depth : 16 bitsStream size : 125 MiB (12%)
Menu


[chi5o.com]_t_5624624.torrent
Торрент: Зарегистрирован ·  [ 2018-10-13 19:13 ] ·  61d7965f928fd784a7e181f5a75b2716ada4cb3a

23 KB

Статус: проверено
Скачан: 0 раз
Размер: 4.34 GB
Оценка: 
(Голосов: 0)
Сказали спасибо: 0  Спасибо
Похожие темы
[Профиль]    [ЛС]
Показать сообщения:    
Ответить на тему

Текущее время: Сегодня 02:09

Часовой пояс: GMT + 7



Вы не можете начинать темы
Вы не можете отвечать на сообщения
Вы не можете редактировать свои сообщения
Вы не можете удалять свои сообщения
Вы не можете голосовать в опросах
Вы не можете прикреплять файлы к сообщениям
Вы можете скачивать файлы


Most Popular | Alle ansehen | Folge 10