Гамби / Gumby 1 / Gumby: The Movie (Арт Клокей / Art Clokey) [1995, США, Мультфильм, DVDRip] AVO Павел Санаев

Ответить на тему
Статистика раздачи [Обновить пиров]
Размер:  712 MB   |    Зарегистрирован:  3 месяца 23 дня   |    Скачан:  0 раз

Полного источника не было: Никогда

 
   
 
 
 
Автор Сообщение

chi5o.com

Создавать темы 29-Сен-2018 20:03

[Цитировать]

Гамби / Gumby 1 / Gumby: The Movie
[img=right]http://i4.imageban.ru/out/2018/09/27/05d4beda4c60b...270c9d.jpg[/img]
Страна: США
Жанр: Мультфильм
Продолжительность: 01:26:42
Год выхода: 1995
Перевод: Авторский (одноголосый закадровый) Павел Санаев
Русские субтитры: нет
Режиссёр: Арт Клокей / Art Clokey
Описание: Гамби вернулся! Гамби присоединяется к группе Clayboys, чтобы выступить на
концерте, который принесет пользу местным фермерам. Но события приобретают неожиданный
поворот, собака Гамби неожиданно реагирует на музыку, у нее идут слезы из жемчуга!
Благосостояние превращается в бедствие, поскольку — это видят его заклятые враги и они
изобретают сложную схему для похищения жемчуга… Сражение между героями заполнено
поездами и самолетами, рыцарями и поединками, острыми ощущениями и кровопролития ми. Все в
духе приключений классики Гамби. «Гамби в Кино» переносит нас в книги Тойланда, Камелота, и
космоса Звездных Войн!
Доп. информация: Дорожка с П. Санаевым синхронизирована и наложена ale_x2008 при помощи Adobe Audition, Sony Vegas и VirtualDubMod.
За оцифрованную с VHS дорожку благодарим - d_rocker


Качество: DVDRip
Формат файла: AVI
Видео: XviD build 47, 576x432 (1.33:1), 25 fps, 945 kbps avg, 0.15 bit/pixel
Аудио: AC3 Dolby Digital, 48000Hz 2/0 (L,R) ch (mono), 192 kbps avg
Субтитры: отсутствуют

Подробные технические данные

Гамби - Gumby 1 (by ale_x2008).aviFormat : AVIFormat/Info : Audio Video InterleaveFile size : 712 MiBDuration : 1 h 26 minOverall bit rate : 1 148 kb/sMovie name : Гамби - Gumby 1 (by ale_x2008)Director : by ale_x2008Writing application : VirtualDubMod 1.5.10.2 (build 2540/release)Copyright : Edich2Comment : Torrentc
VideoID : 0Format : MPEG-4 VisualFormat profile : Advanced Simple@L5Format settings : BVOP1Format settings, BVOP : 1Format settings, QPel : NoFormat settings, GMC : No warppointsFormat settings, Matrix : Default (H.263)Codec ID : XVIDCodec ID/Hint : XviDDuration : 1 h 26 minBit rate : 946 kb/sWidth : 576 pixelsHeight : 432 pixelsDisplay aspect ratio : 4:3Frame rate : 25.000 FPSColor space : YUVChroma subsampling : 4:2:0Bit depth : 8 bitsScan type : ProgressiveCompression mode : LossyBits/(Pixel*Frame) : 0.152Stream size : 587 MiB (82%)Writing library : XviD 1.2.0.dev47 (UTC 2006-11-01)
AudioID : 1Format : AC-3Format/Info : Audio Coding 3Codec ID : 2000Duration : 1 h 26 minBit rate mode : ConstantBit rate : 192 kb/sChannel(s) : 2 channelsChannel positions : Front: L RSampling rate : 48.0 kHzFrame rate : 31.250 FPS (1536 SPF)Bit depth : 16 bitsCompression mode : LossyStream size : 119 MiB (17%)Alignment : Split accross interleavesInterleave, duration : 40 ms (1.00 video frame)Interleave, preload duratio : 500 msService kind : Complete Main


[chi5o.com]_t_5619844.torrent
Торрент: Зарегистрирован ·  [ 2018-09-29 20:02 ] ·  06a6aa1b44ca1f9a0388946f567f8ab251db357a

14 KB

Статус: проверено
Скачан: 0 раз
Размер: 712 MB
Оценка: 
(Голосов: 0)
Сказали спасибо: 0  Спасибо
Похожие темы
[Профиль]    [ЛС]
Показать сообщения:    
Ответить на тему

Текущее время: Сегодня 02:41

Часовой пояс: GMT + 7



Вы не можете начинать темы
Вы не можете отвечать на сообщения
Вы не можете редактировать свои сообщения
Вы не можете удалять свои сообщения
Вы не можете голосовать в опросах
Вы не можете прикреплять файлы к сообщениям
Вы можете скачивать файлы


Pogledaj ovo | муин все песни Mp3 | Single-Breasted Solid Knit Long Sleeve Dress