Монстры на каникулах 3: Море зовёт / Hotel Transylvania 3: Summer Vacation (Генндий Тартаковский / Genndy Tartakovsky) [2018, США, мультфильм, фэнтези, комедия, приключения, семейный, BDRip-AVC] Dub + Original (Eng) + Sub (Rus, Eng)

Ответить на тему
Статистика раздачи [Обновить пиров]
Размер:  2.11 GB   |    Зарегистрирован:  3 месяца 23 дня   |    Скачан:  0 раз

Полного источника не было: Никогда

 
   
 
 
 
Автор Сообщение

chi5o.com

Создавать темы 29-Сен-2018 20:03

[Цитировать]

Монстры на каникулах 3: Море зовёт / Hotel Transylvania 3: Summer Vacation
«Любишь ужасы? Проведи отпуск с семьёй!»
-[img=right]http://i5.imageban.ru/out/2018/09/27/a5602c2779040...ffaffd.png[/img]
Год выхода: 2018
Выпущено: США / Columbia Pictures
Жанр: мультфильм, фэнтези, комедия, приключения, семейный
Продолжительность: 01:37:23
Перевод: Профессиональный (полное дублирование)
Субтитры: Русские (форсированные, полные), Английские (полные, SDH, SDH-Colored)
Оригинальная аудиодорожка: Английская
Навигация по главам: Есть (16 глав)-Режиссер:
Генндий Тартаковский / Genndy Tartakovsky-В ролях:
Адам Сэндлер (Dracula, озвучка), Энди Сэмберг (Johnny, озвучка), Селена Гомес (Mavis, озвучка), Кевин Джеймс (Frank, озвучка), Фрэн Дрешер (Eunice, озвучка), Стив Бушеми (Wayne, озвучка), Молли Шеннон (Wanda, озвучка), Дэвид Спейд (Griffin, озвучка), Кигэн-Майкл Ки (Murray, озвучка), Джим Гэффиган (Van Helsing, озвучка), Кэтрин Хан (Ericka, озвучка), Эшер Блинкофф (Dennis, озвучка)-О фильме:
На этот раз Дракула вместе со своими друзьями отправляется в круиз на шикарном лайнере. Развлечения там на любой вкус: от монстробаскетбола и экзотических экскурсий, до лунных ванн. Неожиданно Дракула влюбляется в капитана корабля — загадочную и прекрасную Эрику, и его дочка Мэвис понимает, что поездка может превратиться в кошмар: ведь Эрика хранит ужасный секрет, который ставит под угрозу существование всех монстров!-
| | IMDB | КиноПоиск | Сэмпл |-Качество: BDRip-AVC [Hotel.Transylvania.3.A.Monster.Vacation.2018.BDRemux.TeamHD]
Формат файла: MKV
Видео: 1152x624 (1,85:1), 23.976 fps, x264 ~2205 kbps avg, 0.128 bit/pixel
Аудио #1: 48 kHz, AC3 Dolby Digital, 3/2 (L,C,R,l,r) + LFE ch, ~384.00 kbps avg (RUS) - iTunes Russia
Аудио #2: 48 kHz, AC3 Dolby Digital, 3/2 (L,C,R,l,r) + LFE ch, ~448.00 kbps avg (ENG)
Формат файла субтитров: Softsub (.srt*)-
[img]http://i2.imageban.ru/thumbs/2018.09.28/c72a12ec5892c90da1dd8ed29b5aeecf.jpg[/img]-[img]http://i3.imageban.ru/thumbs/2018.09.28/c290dccb20aa4da57d8bb8820d9c994b.jpg[/img][img]http://i6.imageban.ru/thumbs/2018.09.28/f77bad91e2e782b15909134d98883199.jpg[/img][img]http://i5.imageban.ru/thumbs/2018.09.28/2c9d2b02f9a6621928271a38ea88161c.jpg[/img][img]http://i1.imageban.ru/thumbs/2018.09.28/c27943604189a9ea792776ed87537818.jpg[/img]MediaInfo">

Скриншоты[img]http://i2.imageban.ru/thumbs/2018.09.28/c72a12ec5892c90da1dd8ed29b5aeecf.jpg[/img]-[img]http://i3.imageban.ru/thumbs/2018.09.28/c290dccb20aa4da57d8bb8820d9c994b.jpg[/img][img]http://i6.imageban.ru/thumbs/2018.09.28/f77bad91e2e782b15909134d98883199.jpg[/img][img]http://i5.imageban.ru/thumbs/2018.09.28/2c9d2b02f9a6621928271a38ea88161c.jpg[/img][img]http://i1.imageban.ru/thumbs/2018.09.28/c27943604189a9ea792776ed87537818.jpg[/img]MediaInfo

Общее
Полное имя                               : D:\Monstry_na_kanikulah_3_BDRip-AVC_iT_by_Dalemake.mkv
Формат файла                                   : Matroska
Версия формата                           : Version 4 / Version 2
Размер файла                             : 2,11 Гбайт
Продолжительность                        : 1 ч. 37 м.
Общий поток                              : 3099 Кбит/сек
Название фильма                          : [Hotel_Transylvania_3_Summer_Vacation_2018_All_Films_by_Dalemake]
Дата кодирования                         : UTC 2018-09-28 04:16:48
Программа кодирования                    : mkvmerge v7.8.0 ('River Man') 32bit built on Apr  3 2015 12:11:22
Библиотека кодирования                   : libebml v1.3.1 + libmatroska v1.4.2
DURATION                                 : 01:30:47.209000000
NUMBER_OF_FRAMES                         : 1650
NUMBER_OF_BYTES                          : 85265
_STATISTICS_WRITING_APP                  : mkvmerge v7.8.0 ('River Man') 32bit built on Apr  3 2015 12:11:22
_STATISTICS_WRITING_DATE_UTC             : 2018-09-28 04:16:48
_STATISTICS_TAGS                         : BPS DURATION NUMBER_OF_FRAMES NUMBER_OF_BYTES
Видео
Идентификатор                            : 1
Формат файла                                   : AVC
Формат файла/Информация                        : Advanced Video Codec
Профиль формата                          : High@L4.1
Параметр CABAC формата                   : Да
Параметр ReFrames формата                : 13 кадров
Идентификатор кодека                     : V_MPEG4/ISO/AVC
Продолжительность                        : 1 ч. 37 м.
Битрейт                                  : 2205 Кбит/сек
Ширина                                   : 1152 пикселя
Высота                                   : 624 пикселя
Соотношение сторон                       : 1,85:1
Частота кадров                           : 23,976 кадра/сек
Цветовое пространство                    : YUV
Субдискретизация насыщенности            : 4:2:0
Битовая глубина                          : 8 бит
Тип развёртки                            : Прогрессивная
Бит/(Пиксели*Кадры)                      : 0.128
Размер потока                            : 1,50 Гбайт (71%)
Заголовок                                : [Hotel_Transylvania_3_Summer_Vacation_2018_All_Films_by_Dalemake]
Библиотека кодирования                   : x264 core 155 r2901 7d0ff22
Настройки программы                      : cabac=1 / ref=13 / deblock=1:-3:-2 / analyse=0x3:0x133 / me=umh / subme=10 / psy=1 / psy_rd=1.00:0.00 / mixed_ref=1 / me_range=48 / chroma_me=1 / trellis=2 / 8x8dct=1 / cqm=0 / deadzone=21,11 / fast_pskip=1 / chroma_qp_offset=-4 / threads=6 / lookahead_threads=1 / sliced_threads=0 / nr=0 / decimate=0 / interlaced=0 / bluray_compat=0 / constrained_intra=0 / bframes=11 / b_pyramid=2 / b_adapt=2 / b_bias=0 / direct=1 / weightb=1 / open_gop=0 / weightp=2 / keyint=240 / keyint_min=23 / scenecut=40 / intra_refresh=0 / rc_lookahead=60 / rc=crf / mbtree=0 / crf=18.7 / qcomp=0.60 / qpmin=0 / qpmax=69 / qpstep=4 / vbv_maxrate=50000 / vbv_bufsize=62500 / crf_max=0.0 / nal_hrd=none / filler=0 / ip_ratio=1.40 / pb_ratio=1.35 / aq=1:1.00
Язык                                     : English
Default                                  : Да
Forced                                   : Нет
DURATION                                 : 01:37:23.264000000
NUMBER_OF_FRAMES                         : 140098
NUMBER_OF_BYTES                          : 1653877110
_STATISTICS_WRITING_APP                  : mkvmerge v7.8.0 ('River Man') 32bit built on Apr  3 2015 12:11:22
_STATISTICS_WRITING_DATE_UTC             : 2018-09-28 04:16:48
_STATISTICS_TAGS                         : BPS DURATION NUMBER_OF_FRAMES NUMBER_OF_BYTES
Аудио #1
Идентификатор                            : 2
Формат файла                                   : AC-3
Формат файла/Информация                        : Audio Coding 3
Расширение режима                        : CM (complete main)
Параметр Endianness формата              : Big
Идентификатор кодека                     : A_AC3
Продолжительность                        : 1 ч. 37 м.
Вид битрейта                             : Постоянный
Битрейт                                  : 384 Кбит/сек
Каналы                                   : 6 каналов
Расположение каналов                     : Front: L C R, Side: L R, LFE
Частота                                  : 48,0 КГц
Битовая глубина                          : 16 бит
Метод сжатия                             : С потерями
Размер потока                            : 267 Мбайт (12%)
Заголовок                                : Dub - iTunes Russia
Язык                                     : Russian
Default                                  : Да
Forced                                   : Нет
Аудио #2
Идентификатор                            : 3
Формат файла                                   : AC-3
Формат файла/Информация                        : Audio Coding 3
Расширение режима                        : CM (complete main)
Параметр Endianness формата              : Big
Идентификатор кодека                     : A_AC3
Продолжительность                        : 1 ч. 37 м.
Вид битрейта                             : Постоянный
Битрейт                                  : 448 Кбит/сек
Каналы                                   : 6 каналов
Расположение каналов                     : Front: L C R, Side: L R, LFE
Частота                                  : 48,0 КГц
Битовая глубина                          : 16 бит
Метод сжатия                             : С потерями
Размер потока                            : 312 Мбайт (14%)
Заголовок                                : Original
Язык                                     : English
Default                                  : Нет
Forced                                   : Нет
Текст #1
Идентификатор                            : 4
Формат файла                                   : UTF-8
Идентификатор кодека                     : S_TEXT/UTF8
Идентификатор кодека/Информация          : UTF-8 Plain Text
Заголовок                                : Forced
Язык                                     : Russian
Default                                  : Да
Forced                                   : Да
Текст #2
Идентификатор                            : 5
Формат файла                                   : UTF-8
Идентификатор кодека                     : S_TEXT/UTF8
Идентификатор кодека/Информация          : UTF-8 Plain Text
Заголовок                                : Full
Язык                                     : Russian
Default                                  : Нет
Forced                                   : Нет
Текст #3
Идентификатор                            : 6
Формат файла                                   : UTF-8
Идентификатор кодека                     : S_TEXT/UTF8
Идентификатор кодека/Информация          : UTF-8 Plain Text
Заголовок                                : Full
Язык                                     : English
Default                                  : Нет
Forced                                   : Нет
Текст #4
Идентификатор                            : 7
Формат файла                                   : UTF-8
Идентификатор кодека                     : S_TEXT/UTF8
Идентификатор кодека/Информация          : UTF-8 Plain Text
Заголовок                                : Full - SDH
Язык                                     : English
Default                                  : Нет
Forced                                   : Нет
Текст #5
Идентификатор                            : 8
Формат файла                                   : UTF-8
Идентификатор кодека                     : S_TEXT/UTF8
Идентификатор кодека/Информация          : UTF-8 Plain Text
Заголовок                                : Full - SDH - Colored
Язык                                     : English
Default                                  : Нет
Forced                                   : Нет
Меню
00:00:00.000                             : en:00:00:00.000
00:04:28.935                             : en:00:04:28.935
00:09:34.824                             : en:00:09:34.824
00:16:02.044                             : en:00:16:02.044
00:20:03.077                             : en:00:20:03.077
00:24:34.932                             : en:00:24:34.932
00:31:12.537                             : en:00:31:12.537
00:36:49.207                             : en:00:36:49.207
00:44:04.725                             : en:00:44:04.725
00:49:57.703                             : en:00:49:57.703
00:54:49.745                             : en:00:54:49.745
01:00:34.881                             : en:01:00:34.881
01:06:12.010                             : en:01:06:12.010
01:10:32.270                             : en:01:10:32.270
01:13:46.380                             : en:01:13:46.380
01:24:56.550                             : en:01:24:56.550
-


[chi5o.com]_t_5619468.torrent
Торрент: Зарегистрирован ·  [ 2018-09-29 20:02 ] ·  f9fc1ea15c832ca329706e2cf4219f6ebca6eb6a

11 KB

Статус: проверено
Скачан: 0 раз
Размер: 2.11 GB
Оценка: 
(Голосов: 0)
Сказали спасибо: 0  Спасибо
Похожие темы
[Профиль]    [ЛС]
Показать сообщения:    
Ответить на тему

Текущее время: Сегодня 02:06

Часовой пояс: GMT + 7



Вы не можете начинать темы
Вы не можете отвечать на сообщения
Вы не можете редактировать свои сообщения
Вы не можете удалять свои сообщения
Вы не можете голосовать в опросах
Вы не можете прикреплять файлы к сообщениям
Вы можете скачивать файлы


Chapman To | Assimil 1 | Sekirei, Vol. 4