Приключения бурундучков / The Chipmunk Adventure (Дженис Кармэн / Janice Karman) [1987, США, Мультфильм, мюзикл, фэнтези, комедия, приключения, DVDRip] AVO (Юрий Живов) + Original Eng

Ответить на тему
Статистика раздачи [Обновить пиров]
Размер:  1.46 GB   |    Зарегистрирован:  4 месяца 27 дней   |    Скачан:  0 раз

Полного источника не было: Никогда

 
   
 
 
 
Автор Сообщение

chi5o.com

Создавать темы 22-Сен-2018 20:55

[Цитировать]

Приключения бурундучков / The Chipmunk Adventure
Страна: США
Жанр: Мультфильм, мюзикл, фэнтези, комедия, приключения
Продолжительность: 01:17:03
Год выхода: 1987
Перевод: Авторский (одноголосый закадровый) Юрий Живов
Перевод 2: Original Eng
Русские субтитры: нет
Режиссёр: Дженис Кармэн / Janice Karman
Описание: Любимое трио — Элвин, Саймон и Теодор — в полнометражном мультфильме. Элвин заключает пари со своими друзьями. Тот, кто победит в гонках вокруг света, получит приз в 100 000 долларов. Но не все так легко, как кажется. На пути возникают препятствия, через которые им помогает пройти настоящая дружба.
Доп. информация: За чистый голос Ю. Живова спасибо Юрий Y7 , а также мне за сведение звука
Семпл: http://yadi.sk/i/iHp6SNqaNBjj0g
Качество: DVDRip
Формат файла: AVI
Видео: 640x480 (1.33:1), 23.976 fps, XviD build 61, 2326 kbps avg, 0.32 bit/pixel
Аудио: Dolby AC3 48000Hz stereo 192kbps
Аудио 2: Dolby AC3 48000Hz stereo 192kbps
Субтитры: отсутствуют

Подробные технические данные

Complete name Приключения бурундучков 1987 (Gyvov).aviFormat : AVIFormat/Info : Audio Video InterleaveFile size : 1.46 GiBDuration : 1h 17mnOverall bit rate : 2 708 KbpsWriting application : VirtualDubMod 1.5.10.3 | www.virtualdub-fr.org || (build 2550/release)Writing library : VirtualDubMod build 2550/release
VideoID : 0Format : MPEG-4 VisualFormat profile : Advanced Simple@L5Format settings, BVOP : 1Format settings, QPel : NoFormat settings, GMC : No warppointsFormat settings, Matrix : CustomCodec ID : XVIDCodec ID/Hint : XviDDuration : 1h 17mnBit rate : 2 327 KbpsWidth : 640 pixelsHeight : 480 pixelsDisplay aspect ratio : 4:3Frame rate : 23.976 (24000/1001) fpsColor space : YUVChroma subsampling : 4:2:0Bit depth : 8 bitsScan type : ProgressiveCompression mode : LossyBits/(Pixel*Frame) : 0.316Stream size : 1.25 GiB (86%)Writing library : XviD 61
Audio #1ID : 1Format : AC-3Format/Info : Audio Coding 3Mode extension : CM (complete main)Format settings, Endianness : BigCodec ID : 2000Duration : 1h 15mnBit rate mode : ConstantBit rate : 192 KbpsChannel(s) : 2 channelsChannel positions : Front: L RSampling rate : 48.0 KHzFrame rate : 31.250 fps (1536 spf)Compression mode : LossyStream size : 103 MiB (7%)Alignment : Split accross interleavesInterleave, duration : 43 ms (1.02 video frame)Interleave, preload duratio : 500 ms
Audio #2ID : 2Format : AC-3Format/Info : Audio Coding 3Mode extension : CM (complete main)Format settings, Endianness : BigCodec ID : 2000Duration : 1h 12mnBit rate mode : ConstantBit rate : 192 KbpsChannel(s) : 2 channelsChannel positions : Front: L RSampling rate : 48.0 KHzFrame rate : 31.250 fps (1536 spf)Compression mode : LossyStream size : 99.1 MiB (7%)Alignment : Split accross interleavesInterleave, duration : 45 ms (1.07 video frame)Interleave, preload duratio : 500 ms

Скриншоты



[chi5o.com]_t_5614336.torrent
Торрент: Зарегистрирован ·  [ 2018-09-22 20:54 ] ·  676878a721809c8b4f4025580051ec78c943876f

15 KB

Статус: проверено
Скачан: 0 раз
Размер: 1.46 GB
Оценка: 
(Голосов: 0)
Сказали спасибо: 0  Спасибо
Похожие темы
[Профиль]    [ЛС]
Показать сообщения:    
Ответить на тему

Текущее время: Сегодня 19:17

Часовой пояс: GMT + 7



Вы не можете начинать темы
Вы не можете отвечать на сообщения
Вы не можете редактировать свои сообщения
Вы не можете удалять свои сообщения
Вы не можете голосовать в опросах
Вы не можете прикреплять файлы к сообщениям
Вы можете скачивать файлы


Wunderbare Pollyanna | Ballet Dancer | Under Wester (1945)