Следующее поколение / Next Gen (Кевин Р. Адамс / Kevin R. Adams, Джо Ксандер / Joe Ksander) [2018, Китай, Канада, США, Мультфильм, комедия, приключения, фантастика, WEB-DLRip] Dub + Rus Sub

Ответить на тему
Статистика раздачи [Обновить пиров]
Размер:  1.46 GB   |    Зарегистрирован:  4 месяца   |    Скачан:  0 раз

Полного источника не было: Никогда

 
   
 
 
 
Автор Сообщение

chi5o.com

Создавать темы 22-Сен-2018 20:55

[Цитировать]

Следующее поколение / Next Gen
«Friendship is the ultimate upgrade»
-[img=right]http://c.radikal.ru/c41/1809/c1/a90aa1c2ba0f.jpg[/img]
Страна: Китай, Канада, США
Жанр: Мультфильм, комедия, приключения, фантастика
Продолжительность: 01:45:55
Год выхода: 2018
Перевод: Профессиональный (дублированный)
Русские субтитры: нет-Режиссёр: Кевин Р. Адамс / Kevin R. Adams, Джо Ксандер / Joe Ksander-Роли озвучивали: Джон Красински, Шарлин Йи, Джейсон Судейкис, Майкл Пенья, Дэвид Кросс, Констанс Ву, Киана Ледэ, Анна Акана, Иссак Райан Браун, Реба Бур-Описание: Недалекое будущее. Девушке-подростку Мэй приходится расти в изоляции: папа ушёл из семьи, а мама больше интересуется новыми технологиями, чем собственной дочерью. Однажды она приводит Мэй на выставку последних достижений науки и техники, где та случайно помогает сбежать из лаборатории роботу последнего поколения. Наконец-то у подростка появляется настоящий друг.- [img]http://rating.kinopoisk.ru/1072038.gif[/img]-Качество: WEB-DLRip
Формат файла: AVI
Видео: 720x304 (2.35:1), 24.000 fps, XviD build 73, 1582 Kbps
Аудио: 48 kHz, AC3 Dolby Digital, 3/2 (L,C,R,l,r) + LFE ch, 384 Kbps
Субтитры: отсутствуют

Подробные технические данные

General Complete name : Downloads\Next.Gen.2018.WEB-DLRip Format : AVI Format/Info : Audio Video Interleave File size : 1.46 GiB Duration : 1h 45mn Overall bit rate : 1 975 Kbps Writing application : VirtualDubMod 1.5.10.3 | www.virtualdub-fr.org || (build 2550/release) Writing library : VirtualDubMod build 2550/release Video #0 ID : 0 Format : MPEG-4 Visual Format profile : Advanced Simple@L5 Format settings, BVOP : 1 Format settings, QPel : No Format settings, GMC : No warppoints Format settings, Matrix : Custom Codec ID : XVID Codec ID/Hint : XviD Duration : 1h 45mn Bit rate : 1 582 Kbps Width : 720 pixels Height : 304 pixels Display aspect ratio : 2.35:1 Frame rate : 24.000 fps Color space : YUV Chroma subsampling : 4:2:0 Bit depth : 8 bits Scan type : Progressive Compression mode : Lossy Bits/(Pixel*Frame) : 0.301 Stream size : 1.17 GiB (80%) Writing library : XviD 73 Audio #1 ID : 1 Format : AC-3 Format/Info : Audio Coding 3 Mode extension : CM (complete main) Format settings, Endianness : Big Codec ID : 2000 Duration : 1h 45mn Bit rate mode : Constant Bit rate : 384 Kbps Channel(s) : 6 channels Channel positions : Front: L C R, Side: L R, LFE Sampling rate : 48.0 KHz Bit depth : 16 bits Compression mode : Lossy Stream size : 291 MiB (19%) Alignment : Split accross interleaves Interleave, duration : 42 ms (1.00 video frame) Interleave, preload duration : 500 ms


[chi5o.com]_t_5616623.torrent
Торрент: Зарегистрирован ·  [ 2018-09-22 20:54 ] ·  82b43221d8d76e2ffd744b5c526fa7f0c8bd04e0

15 KB

Статус: проверено
Скачан: 0 раз
Размер: 1.46 GB
Оценка: 
(Голосов: 0)
Сказали спасибо: 0  Спасибо
Похожие темы
[Профиль]    [ЛС]
Показать сообщения:    
Ответить на тему

Текущее время: Сегодня 02:03

Часовой пояс: GMT + 7



Вы не можете начинать темы
Вы не можете отвечать на сообщения
Вы не можете редактировать свои сообщения
Вы не можете удалять свои сообщения
Вы не можете голосовать в опросах
Вы не можете прикреплять файлы к сообщениям
Вы можете скачивать файлы


Bumper.io | Counting Stars - OneRepublic | Kim Kardashian Collar gargantilla para las mujeres de la joyería de Boho cuerda cadena Collar collares magnéticos accesorios de moda