Пчёлка Майя и Кубок мёда / Maya the Bee: The Honey Games (Ноэль Клири / Noel Cleary, Серджо Делфино / Sergio Delfino, Алекс Стадерманн / Alexs Stadermann, ) [2018, Германия, мультфильм, комедия, приключения, семейный, HDRip] Dub

Ответить на тему
Статистика раздачи [Обновить пиров]
Размер:  742 MB   |    Зарегистрирован:  4 месяца 15 дней   |    Скачан:  0 раз

Полного источника не было: Никогда

 
   
 
 
 
Автор Сообщение

chi5o.com

Создавать темы 07-Сен-2018 22:08

[Цитировать]

Пчёлка Майя и Кубок мёда / Maya the Bee: The Honey Games
Год выхода: 2018
Выпущено: Германия, Австралия
Жанр: мультфильм, комедия, приключения, семейный
Продолжительность: 01:24:48-Перевод: Профессиональный (полное дублирование)
Субтитры: нет
Оригинальная аудиодорожка: нет-Режиссер: Ноэль Клири, Серджо Делфино, Алекс Стадерманн-В ролях: Коко Джек Гиллис, Бенсон Джек Энтони, Ричард Роксбург, Джастин Кларк, Марни МакКуин, Линда Нго, Кэм Ральф, Джордан Хэа, Сэм Хафт, Питер МакАллум-О фильме: Пчёлка Майя с нетерпением ждёт начала спортивных соревнований между ульями за Кубок мёда. Однако Императрица не только не допускает её улей до игр, но и требует, чтобы они отдали половину своего урожая мёда для питания других спортсменов. Такое положение дел не устраивает пчёлку, и она летит к Императрице, чтобы добиться включения её команды в список участников.-Качество: HDRip
Формат файла: AVI
Видео: 688x368 (1.87:1), 23.976 fps, XviD build 73 ~1085 kbps avg, 0.18 bit/pixel
Аудио: 48 kHz, MPEG Layer 3, 2 ch, ~128.00 kbps avg-Сэмпл-

MediaInfo

Формат файла                                   : AVI
Формат файла/Информация                        : Audio Video Interleave
Размер файла                             : 742 Мбайт
Продолжительность                        : 1 ч. 24 м.
Общий поток                              : 1223 Кбит/сек
Программа кодирования                    : VirtualDubMod 1.5.10.3 | www.virtualdub-fr.org || (build 2550/release)
Библиотека кодирования                   : VirtualDubMod build 2550/release
Видео
Идентификатор                            : 0
Формат файла                                   : MPEG-4 Visual
Профиль формата                          : Advanced Simple@L5
Настройки формата                        : BVOP1 / Custom Matrix
Параметр BVOP формата                    : 1
Параметр QPel формата                    : Нет
Параметр GMC формата                     : Без точки перехода
Параметр матрицы формата                 : Выборочная
Идентификатор кодека                     : XVID
Идентификатор кодека/Подсказка           : XviD
Продолжительность                        : 1 ч. 24 м.
Битрейт                                  : 1086 Кбит/сек
Ширина                                   : 688 пикселей
Высота                                   : 368 пикселей
Соотношение сторон                       : 1,85:1
Частота кадров                           : 23,976 (24000/1001) кадра/сек
Цветовое пространство                    : YUV
Субдискретизация насыщенности            : 4:2:0
Битовая глубина                          : 8 бит
Тип развёртки                            : Прогрессивная
Метод сжатия                             : С потерями
Бит/(Пиксели*Кадры)                      : 0.179
Размер потока                            : 659 Мбайт (89%)
Библиотека кодирования                   : XviD 73
Аудио
Идентификатор                            : 1
Формат файла                                   : MPEG Audio
Версия формата                           : Version 1
Профиль формата                          : Layer 3
Идентификатор кодека                     : 55
Идентификатор кодека/Подсказка           : MP3
Продолжительность                        : 1 ч. 24 м.
Вид битрейта                             : Постоянный
Битрейт                                  : 128 Кбит/сек
Каналы                                   : 2 канала
Частота                                  : 48,0 КГц
Частота кадров                           : 41,667 кадра/сек (1152 SPF)
Метод сжатия                             : С потерями
Размер потока                            : 77,6 Мбайт (10%)
Выравнивание                             : Соединение по промежуткам
Продолжительность промежутка             : 42  мс. (1,00 видеокадр)
Время предзагрузки промежутка            : 504  мс.
Библиотека кодирования                   : LAME3.99r
Настройки программы                      : -m s -V 4 -q 2 -lowpass 17 -b 128

Скриншоты




[chi5o.com]_t_5608135.torrent
Торрент: Зарегистрирован ·  [ 2018-09-07 22:07 ] ·  c7d5ca92944aa2a7c7d7d5e383cdabf2a34e8e4b

15 KB

Статус: проверено
Скачан: 0 раз
Размер: 742 MB
Оценка: 
(Голосов: 0)
Сказали спасибо: 0  Спасибо
Похожие темы
[Профиль]    [ЛС]
Показать сообщения:    
Ответить на тему

Текущее время: Сегодня 02:19

Часовой пояс: GMT + 7



Вы не можете начинать темы
Вы не можете отвечать на сообщения
Вы не можете редактировать свои сообщения
Вы не можете удалять свои сообщения
Вы не можете голосовать в опросах
Вы не можете прикреплять файлы к сообщениям
Вы можете скачивать файлы


Fairy Tail 421 | Boku no Hero Academia | 7×03 Una Lezione Per Mike