Торпеды / Torpederna / Сезон: 1 / Серии: 1-6 из 6 (Феликс Хернгрен, Якоб Стрём, Манс Хернгрен) [2014, Швеция, комедия, криминал, HDRip] DVO (ViruseProject)

Ответить на тему
Статистика раздачи [Обновить пиров]
Размер:  3.6 GB   |    Зарегистрирован:  5 месяцев 24 дня   |    Скачан:  0 раз

Полного источника не было: Никогда

 
   
 
 
 
Автор Сообщение

chi5o.com

Создавать темы 24-Июл-2018 22:38

[Цитировать]

Торпеды | Torpederna
Год выхода: 2014
Страна: Швеция
Жанр: комедия, криминал
Продолжительность: ~00:45:00
Перевод: Любительский (двухголосый закадровый) ViruseProject
Режиссёр: Феликс Хернгрен, Якоб Стрём, Манс Хернгрен
В ролях: Торкель Петерссон, Лив Мяёнес, Лео Раззак, Драгомир Мрсич, Джимми Линдстрём, Марика Линдстрём, Рюн Темт, Каролина Джиннинг, Махмут Сувакси и др.
Описание: Сонни отсидел в тюрьме 6 лет за вооружённое ограбление. Его выпускают на свободу условно-досрочно по рекомендации соцработницы Камиллы, с которой они тайно начали встречаться. Он пытается зажить спокойной жизнью, создать семью, купить дом, устроиться на работу. Но никто из работодателей не желает принимать человека с таким криминальным прошлым. А расходы тем временем растут и растут. Решив, в качестве исключения, выполнить небольшую работёнку для своего старого подельника Горана, который теперь зовёт себя Йораном, Сонни встречает Ниму, молодого весёлого парня, мечтающего стать крутым гангстером и разбогатеть. Эти двое ещё не догадываются, что однажды из них получится самая убойная команда мечты.
Качество: HDRip
Формат файла: AVI
Видео: 720x400 (1.80:1), 25 fps, XviD build 67 ~1906 kbps avg, 0.26 bit/pixel
Аудио: 48 kHz, MPEG Layer 3, 2 ch, ~192.00 kbps avg
Субтитры: нет
Реклама: В аудио в начале и конце по 12 секунд.

MediaInfo

General
Complete name : E:\Torpederna.S01E01.400p.BDRip.ViruseProject.avi
Format : AVI
Format/Info : Audio Video Interleave
File size : 665 MiB
Duration : 44 min 2 s
Overall bit rate mode : Variable
Overall bit rate : 2 111 kb/s
Writing application : Lavf57.71.100
Video
ID : 0
Format : MPEG-4 Visual
Format profile : Advanced Simple@L5
Format settings, BVOP : 2
Format settings, QPel : No
Format settings, GMC : No warppoints
Format settings, Matrix : Default (MPEG)
Codec ID : XVID
Codec ID/Hint : XviD
Duration : 44 min 1 s
Bit rate : 1 954 kb/s
Width : 720 pixels
Height : 400 pixels
Display aspect ratio : 16:9
Frame rate : 25.000 FPS
Color space : YUV
Chroma subsampling : 4:2:0
Bit depth : 8 bits
Scan type : Progressive
Compression mode : Lossy
Bits/(Pixel*Frame) : 0.271
Stream size : 615 MiB (93%)
Title : Torpederna. Säsong 1 Episode 01 SE
Writing library : XviD 67
Audio
ID : 1
Format : MPEG Audio
Format version : Version 1
Format profile : Layer 3
Mode : Joint stereo
Mode extension : MS Stereo
Codec ID : 55
Codec ID/Hint : MP3
Duration : 44 min 2 s
Bit rate mode : Variable
Bit rate : 192 kb/s
Channel(s) : 2 channels
Sampling rate : 48.0 kHz
Compression mode : Lossy
Stream size : 45.7 MiB (7%)
Alignment : Aligned on interleaves
Interleave, duration : 24 ms (0.60 video frame)
Title : ViruseProject

Скриншоты

[url=tracker.php?g=foreign_serials&nm=Torpederna]Предыдущие и альтернативные раздачи[/url]


[chi5o.com]_t_5585071.torrent
Торрент: Зарегистрирован ·  [ 2018-07-24 22:38 ] ·  7e34a383a16e83bcb9e26d794b04a40957c24dcd

19 KB

Статус: проверено
Скачан: 0 раз
Размер: 3.6 GB
Оценка: 
(Голосов: 0)
Сказали спасибо: 0  Спасибо
Похожие темы
[Профиль]    [ЛС]
Показать сообщения:    
Ответить на тему

Текущее время: Сегодня 12:42

Часовой пояс: GMT + 7



Вы не можете начинать темы
Вы не можете отвечать на сообщения
Вы не можете редактировать свои сообщения
Вы не можете удалять свои сообщения
Вы не можете голосовать в опросах
Вы не можете прикреплять файлы к сообщениям
Вы можете скачивать файлы


Planta de acuario.lemna minor (planta flotante)lenteja de agua. Porción 10x10 | Swedish Krona | Watch movie