Торпеды / Torpederna / Сезон: 2 / Серии: 1-6 из 6 (Феликс Хернгрен, Якоб Стрём, Манс Хернгрен) [2017, Швеция, комедия, криминал, HDTVRip] DVO (ViruseProject)

Ответить на тему
Статистика раздачи [Обновить пиров]
Размер:  3.41 GB   |    Зарегистрирован:  5 месяцев 24 дня   |    Скачан:  0 раз

Полного источника не было: Никогда

 
   
 
 
 
Автор Сообщение

chi5o.com

Создавать темы 24-Июл-2018 22:38

[Цитировать]

Торпеды | Torpederna
Год выхода: 2017
Страна: Швеция
Жанр: комедия, криминал
Продолжительность: ~00:45:00
Перевод: Любительский (двухголосый закадровый) ViruseProject
Режиссёр: Феликс Хернгрен, Якоб Стрём, Манс Хернгрен
В ролях: Торкель Петерссон, Лив Мяёнес, Лео Раззак, Драгомир Мрсич, Джимми Линдстрём, Марика Линдстрём, Рюн Темт, Каролина Джиннинг, Махмут Сувакси и др.
Описание: Сонни отсидел в тюрьме 6 лет за вооружённое ограбление. Его выпускают на свободу условно-досрочно по рекомендации соцработницы Камиллы, с которой они тайно начали встречаться. Он пытается зажить спокойной жизнью, создать семью, купить дом, устроиться на работу. Но никто из работодателей не желает принимать человека с таким криминальным прошлым. А расходы тем временем растут и растут. Решив, в качестве исключения, выполнить небольшую работёнку для своего старого подельника Горана, который теперь зовёт себя Йораном, Сонни встречает Ниму, молодого весёлого парня, мечтающего стать крутым гангстером и разбогатеть. Эти двое ещё не догадываются, что однажды из них получится самая убойная команда мечты.
Качество: HDTVRip
Формат файла: AVI
Видео: 720x400 (1.80:1), 50 fps, XviD build 67 ~1644 kbps avg, 0.11 bit/pixel
Аудио: 48 kHz, MPEG Layer 3, 2 ch, ~192.00 kbps avg
Субтитры: нет
Реклама: В аудио в начале и конце по 12 секунд.

MediaInfo

General
Complete name : E:\Torpederna.S02E01.400p.HDTVRip.ViruseProject.avi
Format : AVI
Format/Info : Audio Video Interleave
File size : 577 MiB
Duration : 43 min 34 s
Overall bit rate mode : Variable
Overall bit rate : 1 852 kb/s
Writing application : Lavf57.71.100
Video
ID : 0
Format : MPEG-4 Visual
Format profile : Advanced Simple@L5
Format settings, BVOP : 2
Format settings, QPel : No
Format settings, GMC : No warppoints
Format settings, Matrix : Default (MPEG)
Codec ID : XVID
Codec ID/Hint : XviD
Duration : 43 min 33 s
Bit rate : 1 692 kb/s
Width : 720 pixels
Height : 400 pixels
Display aspect ratio : 16:9
Frame rate : 50.000 FPS
Color space : YUV
Chroma subsampling : 4:2:0
Bit depth : 8 bits
Scan type : Progressive
Compression mode : Lossy
Bits/(Pixel*Frame) : 0.118
Stream size : 527 MiB (91%)
Writing library : XviD 67
Audio
ID : 1
Format : MPEG Audio
Format version : Version 1
Format profile : Layer 3
Mode : Joint stereo
Codec ID : 55
Codec ID/Hint : MP3
Duration : 43 min 34 s
Bit rate mode : Variable
Bit rate : 192 kb/s
Channel(s) : 2 channels
Sampling rate : 48.0 kHz
Compression mode : Lossy
Stream size : 44.6 MiB (8%)
Alignment : Aligned on interleaves
Interleave, duration : 24 ms (1.20 video frame)
Title : ViruseProject

Скриншоты

]
[url=tracker.php?g=foreign_serials&nm=Torpederna]Предыдущие и альтернативные раздачи[/url]


[chi5o.com]_t_5585079.torrent
Торрент: Зарегистрирован ·  [ 2018-07-24 22:38 ] ·  3f75662fd16e1146d573dd1118c0fb6d9ce64229

18 KB

Статус: проверено
Скачан: 0 раз
Размер: 3.41 GB
Оценка: 
(Голосов: 0)
Сказали спасибо: 0  Спасибо
Похожие темы
[Профиль]    [ЛС]
Показать сообщения:    
Ответить на тему

Текущее время: Сегодня 12:47

Часовой пояс: GMT + 7



Вы не можете начинать темы
Вы не можете отвечать на сообщения
Вы не можете редактировать свои сообщения
Вы не можете удалять свои сообщения
Вы не можете голосовать в опросах
Вы не можете прикреплять файлы к сообщениям
Вы можете скачивать файлы


Night School | ACT-AGE 44 | LegalPorno - Nilla Black discovers black feeling