Золото Одина / TRIO: Odins Gull / Сезон: 1 / Серии: 1-10 из 10 (Atle Knudsen / Атле Кнудсен) [2014, Норвегия, криминал, HDTVRip] MVO

Ответить на тему
Статистика раздачи [Обновить пиров]
Размер:  3.66 GB   |    Зарегистрирован:  6 месяцев 29 дней   |    Скачан:  0 раз

Полного источника не было: Никогда

 
   
 
 
 
Автор Сообщение

chi5o.com

Создавать темы 18-Июн-2018 23:49

[Цитировать]

Золото Одина / TRIO: Odins Gull Год выхода: 2014
Страна: Норвегия
Жанр: криминал
Продолжительность: ~ 00:25:00
Перевод: Профессиональный (многоголосый закадровый)
Режиссёр: Atle Knudsen / Атле Кнудсен
В ролях: Наоми Хассельберг Торсруд, Оскар Линдквист ,Bjørnar Lysfoss Hagesveen ,Рейдар Серенсен ,Андре Эриксен ,Теа Бэй ,Камилла Аугуста Халлан
Описание: Двое школьников, не очень популярных среди одноклассников, хотят разыскать клад, несмотря на то, что на него наложено проклятье. К команде золотоискателей присоединяется Нора, которая только что переехала в маленький городок из Осло. Удастся ли друзьям найти клад?
[url=tracker.php?g=foreign_serials&nm=TRIO%20Odins%20Gull]Ссылка на предыдущие и альтернативные раздачи[/url]
Сэмпл: http://multi-up.com/1164158

Качество: HDTVRip
Формат файла: AVI
Видео: 720x400 (16:9), 25 fps, XviD, 1970 kbps avg, 0.274 bit/pixel
Аудио: [Русский] AC3, 48 kHz, 2 ch, 192 kbps
Субтитры: отсутствуют
Реклама: отсутствует

MediaInfo

ОбщееПолное имя : C:\Users\Admin\Desktop\Золото Одина (HDTVRIp)\Золото Одина (01 серия).aviФормат файла : AVIФормат файла/Информация : Audio Video InterleaveРазмер файла : 375 МбайтПродолжительность : 24 м.Общий поток : 2172 Кбит/секПрограмма кодирования : VirtualDubMod 1.5.10.3 | www.virtualdub-fr.org || (build 2550/release)Библиотека кодирования : VirtualDubMod build 2550/release
ВидеоИдентификатор : 0Формат файла : MPEG-4 VisualПрофиль формата : Advanced Simple@L5Параметр BVOP формата : 1Параметр QPel формата : НетПараметр GMC формата : Без точки переходаПараметр матрицы формата : Default (MPEG)Идентификатор кодека : XVIDИдентификатор кодека/Подсказка : XviDПродолжительность : 24 м.Битрейт : 1970 Кбит/секШирина : 720 пикселейВысота : 400 пикселейСоотношение сторон : 16:9Частота кадров : 25,000 кадров/секЦветовое пространство : YUVСубдискретизация насыщенности : 4:2:0Битовая глубина : 8 битТип развёртки : ПрогрессивнаяМетод сжатия : С потерямиБит/(Пиксели*Кадры) : 0.274Размер потока : 340 Мбайт (91%)Библиотека кодирования : XviD 1.2.1 (UTC 2008-12-04)
АудиоИдентификатор : 1Формат файла : AC-3Формат файла/Информация : Audio Coding 3Расширение режима : CM (complete main)Параметр Endianness формата : BigИдентификатор кодека : 2000Продолжительность : 24 м.Вид битрейта : ПостоянныйБитрейт : 192 Кбит/секКаналы : 2 каналаРасположение каналов : Front: L RЧастота : 48,0 КГцБитовая глубина : 16 битМетод сжатия : С потерямиРазмер потока : 33,2 Мбайт (9%)Выравнивание : Разделение по промежуткамПродолжительность промежутка : 40 мс. (1,00 видеокадр)Время предзагрузки промежутка : 500 мс.

Скриншоты



[chi5o.com]_t_5438084.torrent
Торрент: Зарегистрирован ·  [ 2018-06-18 23:48 ] ·  51ba257d743b00f562519815b0c9b59b5e4ea0e7

20 KB

Статус: проверено
Скачан: 0 раз
Размер: 3.66 GB
Оценка: 
(Голосов: 0)
Сказали спасибо: 0  Спасибо
Похожие темы
[Профиль]    [ЛС]
Показать сообщения:    
Ответить на тему

Текущее время: Сегодня 13:14

Часовой пояс: GMT + 7



Вы не можете начинать темы
Вы не можете отвечать на сообщения
Вы не можете редактировать свои сообщения
Вы не можете удалять свои сообщения
Вы не можете голосовать в опросах
Вы не можете прикреплять файлы к сообщениям
Вы можете скачивать файлы


Swimwear | Download | Matantei Loki Ragnarok