Едва видимые / Полускрытые / De Halvt Dolda / Сезон: 1 / Серии: 1-4 из 4 (Симон Кайзер / Simon Kaijser) [2009, Швеция, драма, DVDRip-AVC] Original + Rus Sub

Ответить на тему
Статистика раздачи [Обновить пиров]
Размер:  2.34 GB   |    Зарегистрирован:  6 месяцев 29 дней   |    Скачан:  1 раз

Полного источника не было: 4 месяца

 
   
 
 
 
Автор Сообщение

chi5o.com

Создавать темы 18-Июн-2018 23:49

[Цитировать]

Едва видимые / Полускрытые / De Halvt Dolda
Год выхода: 2009
Страна: Швеция
Жанр: драма
Продолжительность: ~00:58:00
Перевод: субтитры
Переводчик: Станислав Бельков (группа "Скандинавский Калейдоскоп")
Режиссёр: Симон Кайзер / Simon Kaijser
Сценарий: Юнас Гардель / Jonas Gardell
В ролях: Ульф Фриберг, Кристоффер Берглунд, Хенрик Льюнг, Анна Литорин, Кристоффер Хеден, Анастасиос Соулис, Том Льюнгман, Аксель Линдквист, Отто Флюстрём, Давид Денсик, Фредди Осблом, Аня Лундквист, Мари Рикардсон, Якоб Эрикссон, Ярмо Мякинен.
Описание: Мини-сериал «Едва видимые» снят по сценарию известного шведского писателя Юнаса Гарделя, автора романа «Никогда не вытирайте слезы без перчаток», по которому был снят не менее известный мини-сериал.
Действие фильма происходит в нескольких временных промежутках: в 1970-х, 1990-х и в наши дни. Рагнар, Леннарт и Хенрик живут в религиозной семье и ждут приезда отца, который работает миссионером в Кении. Линус и его братья предоставлены самим себе, пока их мать отсыпается после запоя. Не зная, куда девать себя и свою злость на непутевую мать, Линус вместе с дружками становятся скинхедами. А где-то рядом живет одинокий Давид, единственная отрада для которого — общение в чате с парнем, который пишет под ником Бирк. Родители, слишком мягкие, чтобы настоять на своем, потакают ему, и замкнутый мальчик верит, что обрел настоящую любовь.
Проходят годы, и дом, в котором они долгое время обитали, переходит к новым владельцам, и лишь в бывшей комнате Давида на стене все так же висит фотография Бирка. Это история о тех, кому была дарована жизнь, и о тех, у кого ее отняли.
(Скандинавский Калейдоскоп)
Семейная пара чудаков после многих неудач ждёт, наконец, своего счастливого младенца, другие двое не знают, как подступиться к запутавшемуся в себе сыну-подростку. Христианский миссионер возвращается домой, чтобы потребовать от испуганного мальчишки ответа за трагическую гибель своей жены, тогда как молодёжный лидер церковной общины с надеждой посматривает на одного из своих прихожан, в страхе скрывая греховное влечение своих чувств. Дополняет сюжет невротичный фашиствующий юный скинхед, заботливо опекающий двух родимых братьёв, живущих в страхе ожидания пришествия социальных служб, взявших на прицел их планомерно спивающуюся и опускающуюся мать.
Едва обозначив канву, кино начинает нырять из прошлого в будущее, вынося наверх повзрослевших героев и снова погружаясь в глубину их детских мук, ещё не сводя всех вместе, но уже намекая на пересечение, которое, так или иначе, изменит судьбу каждого и всех, прокладывая путь к смерти: кому ранней, а кому — безвременной, складывая разные случаи в противоречивый и всё-таки закономерный итог.
(gordy)
Доп. информация: http://www.imdb.com/title/tt1347733/
Ещё один сериал по сценарию Юнаса Гарделя - [url=tracker.php?nm=Torka%20aldrig%20tarar%20utan%20handskar]Никогда не вытирайте слезы без перчаток[/url]
Ещё один сериал, снятый Симоном Кайзером - [url=tracker.php?nm=Life%20in%20Squares]Жизнь в квадратах[/url]
[url=tracker.php?g=foreign_serials&nm=De%20Halvt%20Dolda]Все раздачи сериала[/url]
Сэмпл: http://multi-up.com/1168460
Качество: DVDRip-AVC
Формат файла: MKV
Видео: MPEG4 Video (H264) 720x406 (16:9) 50fps 1071kbps
Аудио: AAC 48000Hz stereo 160kbps Sweden
Субтитры: Softsub UTF-8 Russian
Реклама: отсутствует

MediaInfo

GeneralUnique ID : 218118986338791578018129393853014944854 (0xA4183050254F17BB90192985C65B2C56)Complete name : D:\Downloads\De Halvt Dolda\De.Halvt.Dolda.2009.E01.mkvFormat : MatroskaFormat version : Version 4 / Version 2File size : 600 MiBDuration : 59 min 2 sOverall bit rate : 1 421 kb/sMovie name : De halvt dolda - Those Half Hidden - S01E01Encoded date : UTC 2016-05-22 16:45:10Writing application : mkvmerge v8.5.2 ('Crosses') 64bitWriting library : libebml v1.3.3 + libmatroska v1.4.4
VideoID : 1Format : AVCFormat/Info : Advanced Video CodecFormat profile : High@L4.1Format settings, CABAC : YesFormat settings, ReFrames : 4 framesCodec ID : V_MPEG4/ISO/AVCDuration : 59 min 2 sBit rate : 1 259 kb/sWidth : 720 pixelsHeight : 406 pixelsDisplay aspect ratio : 16:9Original display aspect ratio : 16:9Frame rate mode : ConstantFrame rate : 50.000 FPSColor space : YUVChroma subsampling : 4:2:0Bit depth : 8 bitsScan type : ProgressiveBits/(Pixel*Frame) : 0.086Stream size : 531 MiB (89%)Writing library : x264 core 146 r2555 0c21480Encoding settings : cabac=1 / ref=3 / deblock=1:-1:-1 / analyse=0x3:0x113 / me=hex / subme=7 / psy=1 / psy_rd=1,00:0,15 / mixed_ref=1 / me_range=16 / chroma_me=1 / trellis=1 / 8x8dct=1 / cqm=0 / deadzone=21,11 / fast_pskip=1 / chroma_qp_offset=-3 / threads=6 / lookahead_threads=1 / sliced_threads=0 / nr=0 / decimate=1 / interlaced=0 / bluray_compat=0 / constrained_intra=0 / bframes=3 / b_pyramid=2 / b_adapt=1 / b_bias=0 / direct=1 / weightb=1 / open_gop=0 / weightp=2 / keyint=500 / keyint_min=50 / scenecut=40 / intra_refresh=0 / rc_lookahead=40 / rc=2pass / mbtree=1 / bitrate=1259 / ratetol=1,0 / qcomp=0,60 / qpmin=0 / qpmax=69 / qpstep=4 / cplxblur=20,0 / qblur=0,5 / vbv_maxrate=62500 / vbv_bufsize=78125 / nal_hrd=none / filler=0 / ip_ratio=1,40 / aq=1:1,00Default : YesForced : NoColor range : LimitedColor primaries : BT.709Transfer characteristics : BT.709Matrix coefficients : BT.709
AudioID : 2Format : AACFormat/Info : Advanced Audio CodecFormat profile : LCCodec ID : A_AACDuration : 59 min 2 sBit rate : 160 kb/sChannel(s) : 2 channelsChannel positions : Front: L RSampling rate : 48.0 kHzFrame rate : 46.875 FPS (1024 spf)Compression mode : LossyDelay relative to video : -21 msStream size : 67.4 MiB (11%)Title : StereoLanguage : SwedishDefault : YesForced : No
TextID : 3Format : UTF-8Codec ID : S_TEXT/UTF8Codec ID/Info : UTF-8 Plain TextDuration : 57 min 37 sBit rate : 66 b/sCount of elements : 526Stream size : 28.2 KiB (0%)Language : RussianDefault : YesForced : No


[chi5o.com]_t_5453613.torrent
Торрент: Зарегистрирован ·  [ 2018-06-18 23:48 ] ·  17d9ed8798cce62dcb89c399e074a31a78a01b0c

48 KB

Статус: проверено
Скачан: 1 раз
Размер: 2.34 GB
Оценка: 
(Голосов: 0)
Сказали спасибо: 0  Спасибо
Похожие темы
[Профиль]    [ЛС]
Показать сообщения:    
Ответить на тему

Текущее время: Сегодня 12:36

Часовой пояс: GMT + 7



Вы не можете начинать темы
Вы не можете отвечать на сообщения
Вы не можете редактировать свои сообщения
Вы не можете удалять свои сообщения
Вы не можете голосовать в опросах
Вы не можете прикреплять файлы к сообщениям
Вы можете скачивать файлы


Mylene Farmer - Timeless 2013. | Лара Гилкрист | Suspence