Охотник и жертва / I Hunt Men / Mannaveiðar / Сезон: 1 / Серии: 1-4 из 4 (Бьёдн Бр. Бьёднссон / Björn Br. Björnsson) [2008, Исландия, детектив, DVDRip] VO (Project Web Money) + Rus Sub (Станислав Бельков) + Original

Ответить на тему
Статистика раздачи [Обновить пиров]
Размер:  1.59 GB   |    Зарегистрирован:  7 месяцев 7 дней   |    Скачан:  1 раз

Полного источника не было: 7 месяцев 3 дня

 
   
 
 
 
Автор Сообщение

chi5o.com

Создавать темы 10-Июн-2018 04:47

[Цитировать]

Охотник и жертва / I Hunt Men / Mannaveiðar Страна: Исландия
Год выхода: 2008
Жанр: детектив
Продолжительность: ~00:42:00
Перевод 1: Любительский (одноголосый закадровый) - Project_Web_Money
Перевод 2: Субтитры. Автор - Станислав Бельков
Оригинальная аудиодорожка: исландская
Режиссёр: Бьёдн Бр. Бьёднссон / Björn Br. Björnsson
В ролях: Шарлотта Бювинг, Лаувейя Элиасдоуттир, Гисли Орн Гардарссон, Хильмир Снайр Гвюднасон, Дарри Инголфссон, Этли Рафн Сигурдссон, Бьёрн Торс, Халла Вильяульмсдоуттир, Эльва Оуск Оулафсдоуттир, Оулавюр Дарри Оулафссон.
Описание: Однажды ранним утром охотник вышел пострелять белых куропаток, но неожиданно над его головой прозвучал выстрел, затем еще один и еще один, целая очередь выстрелов. Охотник превратился в жертву. Труп вскоре обнаруживают и на место прибывает полиция. Начинается расследование — его ведут двое исландцев: Гуннар, живущий с матерью и любящий перекусить, и Хинрик, педантичный и дотошный детектив, предпочитающий жить один в стильно обставленном доме. Им предстоит узнать, кто затеял охоту на человека…
[img]http://rating.kinopoisk.ru/885314.gif[/img]
Доп. информация: DVDRip - из раздачи Luckystar с
Перевод субтитров - Станислав Бельков, закадровая озвучка - Project_Web_Money
Монтаж, спонсирование и сведение звука: [url=profile.php?mode=viewprofile&u=15275915]лорди74[/url]
[url=tracker.php?g=foreign_serials&nm=Mannaveiðar]Ссылка на предыдущие и альтернативные раздачи[/url]

Качество: DVDRip
Формат файла: AVI
Видео: 608x336 (1.81:1), 25 fps, XviD MPEG-4 ~1009 kbps avg, 0.20 bit/pixel
Аудио 1: 48 kHz, AC3 Dolby Digital, 2/0 (L,R) ch, ~192 kbps - rus
Аудио 2: 48 kHz, MPEG Layer 3, 2 ch, ~128.00 kbps avg - isl
Субтитры: русские (softsub - SRT)
Реклама: Отсутствует

MediaInfo

GeneralComplete name : D:\Public\Mannaveidar 2008 Season 1. (01-04. Episode) [DVDRip - Rus Ice]\Mannaveidar - 1x01 - Episode (1) [rus isl].aviFormat : AVIFormat/Info : Audio Video InterleaveFile size : 406 MiBDuration : 42mn 13sOverall bit rate : 1 345 KbpsWriting application : VirtualDubMod 1.5.10.2 (build 2540/release)Writing library : VirtualDubMod build 2540/release
VideoID : 0Format : MPEG-4 VisualFormat profile : Advanced Simple@L5Format settings, BVOP : 2Format settings, QPel : NoFormat settings, GMC : No warppointsFormat settings, Matrix : Default (H.263)Codec ID : XVIDCodec ID/Hint : XviDDuration : 42mn 13sBit rate : 1 010 KbpsWidth : 608 pixelsHeight : 336 pixelsDisplay aspect ratio : 16:9Frame rate : 25.000 fpsColor space : YUVChroma subsampling : 4:2:0Bit depth : 8 bitsScan type : ProgressiveCompression mode : LossyBits/(Pixel*Frame) : 0.198Stream size : 305 MiB (75%)Writing library : XviD 61
Audio #1ID : 1Format : AC-3Format/Info : Audio Coding 3Mode extension : CM (complete main)Codec ID : 2000Duration : 42mn 13sBit rate mode : ConstantBit rate : 192 KbpsChannel(s) : 2 channelsChannel positions : Front: L RSampling rate : 48.0 KHzBit depth : 16 bitsCompression mode : LossyStream size : 58.0 MiB (14%)Alignment : Split accross interleavesInterleave, duration : 40 ms (1.00 video frame)Interleave, preload duration : 500 msTitle : rus
Audio #2ID : 2Format : MPEG AudioFormat version : Version 1Format profile : Layer 3Mode : Joint stereoMode extension : MS StereoCodec ID : 55Codec ID/Hint : MP3Duration : 42mn 13sBit rate mode : ConstantBit rate : 128 KbpsChannel(s) : 2 channelsSampling rate : 48.0 KHzCompression mode : LossyStream size : 38.7 MiB (10%)Alignment : Aligned on interleavesInterleave, duration : 40 ms (1.00 video frame)Interleave, preload duration : 504 msTitle : isl

Скриншоты


1 серия

2 серия

3 серия

4 серия


[chi5o.com]_t_5428181.torrent
Торрент: Зарегистрирован ·  [ 2018-06-10 04:47 ] ·  11297cf61eb3c50a0bd331f1a5e972fcaf84f427

17 KB

Статус: проверено
Скачан: 1 раз
Размер: 1.59 GB
Оценка: 
(Голосов: 0)
Сказали спасибо: 0  Спасибо
Похожие темы
[Профиль]    [ЛС]
Показать сообщения:    
Ответить на тему

Текущее время: Сегодня 13:32

Часовой пояс: GMT + 7



Вы не можете начинать темы
Вы не можете отвечать на сообщения
Вы не можете редактировать свои сообщения
Вы не можете удалять свои сообщения
Вы не можете голосовать в опросах
Вы не можете прикреплять файлы к сообщениям
Вы можете скачивать файлы


How to Be a Latin Lover | Gothamprosieben.de | IMDb: 8 S5E9 The Flash - Season 5