Третий глаз / Det tredje øyet / Сезон: 1 / Серии: 1-10 из 10 (Тригве Аллистер Дайсен, Гер Хеннинг Хопланд) [2013, Норвегия, драма, криминал, WEBRip] MVO Кинопоказ HD1

Ответить на тему
Статистика раздачи [Обновить пиров]
Размер:  5.87 GB   |    Зарегистрирован:  7 месяцев 7 дней   |    Скачан:  0 раз

Полного источника не было: Никогда

 
   
 
 
 
Автор Сообщение

chi5o.com

Создавать темы 10-Июн-2018 04:47

[Цитировать]

Третий глаз / Det tredje øyet
Год выхода: 2013
Страна: Норвегия
Жанр: драма, криминал
Продолжительность: ~00:47:00
Перевод: Профессиональный (многоголосый закадровый) Кинопоказ HD1
Режиссёр: Тригве Аллистер Дайсен, Гер Хеннинг Хопланд
В ролях: Карре Хаген Сиднесс, Марте Энгебритсен, Эндре Хеллествейт, Эйвинд Сэндер
Описание: Следователь Вигго Люст потерял дочь четыре года назад, но так и не смог смириться с её пропажей. Тем временем подо льдом местного озера находят труп женщины. Но не всё так просто, как кажется поначалу, ведь за её состоянием выстроилась целая очередь...
Доп. информация: IMDB: 7.60
Ссылка на предыдущие и альтернативные раздачи: [url=tracker.php?g=foreign_serials&nm=Det%20tredje%20øyet]http://Torrentc/forum/tracker.php?g=foreign_serials...je%20øyet[/url]
Сэмпл: http://yadi.sk/i/zkYW0enj3LVmT8
Качество: WEBRip
Формат файла: AVI
Видео: XVID, 1758 Kbps, 720х400, 25.000 fps
Аудио: MP3, 128 Kbps, 48.0 KHz, 2 channels
Субтитры: нет
Реклама: нет

MediaInfo

GeneralComplete name : E:\3 глаз\Det tredje øyet .1.01.aviFormat : AVIFormat/Info : Audio Video InterleaveFile size : 601 MiBDuration : 47mn 47sOverall bit rate : 1 758 KbpsWriting application : VirtualDubMod 1.5.10.2 (build 2542/release)Writing library : VirtualDubMod build 2542/release
VideoID : 0Format : MPEG-4 VisualFormat profile : Advanced Simple@L5Format settings, BVOP : 2Format settings, QPel : NoFormat settings, GMC : No warppointsFormat settings, Matrix : Default (MPEG)Codec ID : XVIDCodec ID/Hint : XviDDuration : 47mn 47sBit rate : 1 620 KbpsWidth : 720 pixelsHeight : 400 pixelsDisplay aspect ratio : 16:9Frame rate : 25.000 fpsColor space : YUVChroma subsampling : 4:2:0Bit depth : 8 bitsScan type : ProgressiveCompression mode : LossyBits/(Pixel*Frame) : 0.225Stream size : 554 MiB (92%)Writing library : XviD 1.2.1 (UTC 2008-12-04)
AudioID : 1Format : MPEG AudioFormat version : Version 1Format profile : Layer 3Mode : Joint stereoCodec ID : 55Codec ID/Hint : MP3Duration : 47mn 47sBit rate mode : ConstantBit rate : 128 KbpsChannel(s) : 2 channelsSampling rate : 48.0 KHzCompression mode : LossyStream size : 43.8 MiB (7%)Alignment : Aligned on interleavesInterleave, duration : 40 ms (1.00 video frame)Interleave, preload duratio : 504 ms

Скриншоты



[chi5o.com]_t_5433959.torrent
Торрент: Зарегистрирован ·  [ 2018-06-10 04:47 ] ·  06c57b0d440cb0a8b514a2c843d5f14fe102cee6

16 KB

Статус: проверено
Скачан: 0 раз
Размер: 5.87 GB
Оценка: 
(Голосов: 0)
Сказали спасибо: 0  Спасибо
Похожие темы
[Профиль]    [ЛС]
Показать сообщения:    
Ответить на тему

Текущее время: Сегодня 12:52

Часовой пояс: GMT + 7



Вы не можете начинать темы
Вы не можете отвечать на сообщения
Вы не можете редактировать свои сообщения
Вы не можете удалять свои сообщения
Вы не можете голосовать в опросах
Вы не можете прикреплять файлы к сообщениям
Вы можете скачивать файлы


Doll Pram Girls Pretend Stroller Deluxe Adjustable Play Baby Carrier Bag Set | Vintage Original Thorlux Grey Enamel Industrial Pendant Lights  | Diamond no Ace OVA Episode 5 English Subbed