Лимбо / Limbo / Сезон: 3 / Серии: 1,3,4,8,9,12,13 из 16 (Пол Берг / Poul Berg) [2014, Дания, Драма, семейный, боевик, SATRip] MVO (Детский)

Ответить на тему
Статистика раздачи [Обновить пиров]
Размер:  1.23 GB   |    Зарегистрирован:  7 месяцев 25 дней   |    Скачан:  0 раз

Полного источника не было: Никогда

 
   
 
 
 
Автор Сообщение

chi5o.com

Создавать темы 23-Май-2018 22:06

[Цитировать]

Лимбо / Limbo
Год выхода: 2014
Страна: Дания
Жанр: Драма, семейный, боевик
Продолжительность: 00:14:00
Перевод: Профессиональный (многоголосый закадровый) ТК "Детский"
Режиссёр: Пол Берг / Poul Berg
В ролях: Уильям Рудбек Линдхардт / William Rudbeck Lindhardt, Оливер К. Нильсен / Oliver K. Nielsen, Кармен Хеконсон / Carmen Håkonsson, Аманда Ростгард Филипсен / Amanda Rostgaard Phillipsen, Якоб Хансен / Jakob Hansen, Мартин Бух / Martin Buch, Рикке Луиза Андерссон / Rikke Louise Andersson, Анетт Стёвельбек / Anette Støvelbæk, Ларс Ранте / Lars Ranthe, Анн Мари Хельгер / Anne Marie Helger.
Описание: Луиза, Ная, Боуи и Аск — подростки из Копенгагена. Они уже не дети, но их путь к взрослению только начался. Им предстоит пережить немало сложностей, преодолеть свои страхи, научиться дружить и, наконец, повзрослеть. Аск недавно переехал в Копенгаген вместе с беременной матерью, отчимом и двумя сводными сестрами. Он скучает по своему свободолюбивому отцу-музыканту и жизни в деревне, и ему совсем не нравится жить в доме, требующем ремонта. Красавица Луиза живёт с родителями и младшим братом в изысканном особняке. Ее мама мечтает, чтобы Луиза стала фотомоделью, и постоянно водит дочь на съемки.
Самой Луизе это вовсе не нравится, но она не решается сказать об этом маме. Боуи — настоящий «ботаник», который не слишком интересуется дружбой со сверстниками. Он вынужден помогать в магазине своему отцу, который часто бывает «не в духе». А еще Боуи тайно влюблён в Луизу. Целеустремленная Ная, приехавшая из Южной Африки, мечтает стать чемпионкой по бегу. Девочку очень беспокоят сложные взаимоотношения её приёмных родителей, которые находятся на грани развода. Смелость этих ребят, их характеры и идеалы составляют центр повествования. Герои становятся лучшими друзьями, потому что вместе легче справляться с проблемами и веселее взрослеть.
Ссылка на предыдущие и альтернативные раздачи: [url=tracker.php?g=foreign_serials&nm=Limbo]http://Torrentc/forum/tracker.php?g=foreign_serials&nm=Limbo[/url]
Сэмпл: http://multi-up.com/1128578
Качество: SATRip
Формат файла: AVI
Видео: MPEG4, DivX 5, 720x400 (16:9), 25.000 fps, 1 508 Kbps (0.209 bit/pixel)
Аудио: AC-3, 48.0 KHz, 2 ch, 192 Kbps, CBR
Субтитры: нет
Реклама:
нет

MediaInfo

Общее
Полное имя : M:\3x01 - Pagten (Соглашение).avi
Формат файла : AVI
Формат файла/Информация : Audio Video Interleave
Размер файла : 180 Мбайт
Продолжительность : 14 м.
Общий поток : 1710 Кбит/сек
Название фильма : Лимбо. Сезон 3 / Limbo. Saeson 3 (2014)
Программа кодирования : VirtualDubMod 1.5.10.2 (build 2540/release)
Библиотека кодирования : VirtualDubMod build 2540/release
Авторское право : miha2154
Видео
Идентификатор : 0
Формат файла : MPEG-4 Visual
Профиль формата : Advanced Simple@L5
Параметр BVOP формата : 2
Параметр QPel формата : Нет
Параметр GMC формата : Без точки перехода
Параметр матрицы формата : Выборочная
Идентификатор кодека : DX50
Идентификатор кодека/Подсказка : DivX 5
Продолжительность : 14 м.
Битрейт : 1508 Кбит/сек
Ширина : 720 пикселей
Высота : 400 пикселей
Соотношение сторон : 16:9
Частота кадров : 25,000 кадров/сек
Цветовое пространство : YUV
Субдискретизация насыщенности : 4:2:0
Битовая глубина : 8 бит
Тип развёртки : Прогрессивная
Метод сжатия : С потерями
Бит/(Пиксели*Кадры) : 0.209
Размер потока : 159 Мбайт (88%)
Библиотека кодирования : XviD 65
Аудио
Идентификатор : 1
Формат файла : AC-3
Формат файла/Информация : Audio Coding 3
Расширение режима : CM (complete main)
Параметр Endianness формата : Big
Идентификатор кодека : 2000
Продолжительность : 14 м.
Вид битрейта : Постоянный
Битрейт : 192 Кбит/сек
Каналы : 2 канала
Расположение каналов : Front: L R
Частота : 48,0 КГц
Частота кадров : 31,250 кадров/сек (1536 spf)
Метод сжатия : С потерями
Размер потока : 20,2 Мбайт (11%)
Выравнивание : Разделение по промежуткам
Продолжительность промежутка : 40 мс. (1,00 видеокадр)
Время предзагрузки промежутка : 500 мс.
Заголовок : Профессиональный (многоголосый закадровый)

Скриншоты




[chi5o.com]_t_5317356.torrent
Торрент: Зарегистрирован ·  [ 2018-05-23 22:06 ] ·  4780d2084c4247ae05ecf8e47e4e4f64244e5f8f

13 KB

Статус: проверено
Скачан: 0 раз
Размер: 1.23 GB
Оценка: 
(Голосов: 0)
Сказали спасибо: 0  Спасибо
Похожие темы
[Профиль]    [ЛС]
Показать сообщения:    
Ответить на тему

Текущее время: Сегодня 12:41

Часовой пояс: GMT + 7



Вы не можете начинать темы
Вы не можете отвечать на сообщения
Вы не можете редактировать свои сообщения
Вы не можете удалять свои сообщения
Вы не можете голосовать в опросах
Вы не можете прикреплять файлы к сообщениям
Вы можете скачивать файлы


Terms of Use | Jurassic World: El Reino Caído 3D [DTS 5.1][VOSE] | Education in Pakistan - 75458 Words