Борьба за жизнь / Kampen for tilværelsen / Kampen for tilvaerelsen / Struggle for Life / Сезон: 2 / Серии: 1-8 из 8 (Бьорн Олаф Йоханессен, Эрленд Лу, Пер Шрайнер) [2015, Норвегия, драма, WEBRip] MVO (Eurochannel) + Nor

Ответить на тему
Статистика раздачи [Обновить пиров]
Размер:  4.32 GB   |    Зарегистрирован:  1 год 1 месяц   |    Скачан:  0 раз

Полного источника не было: Никогда

 
   
 
 
 
Автор Сообщение

chi5o.com

Создавать темы 17-Дек-2017 22:00

[Цитировать]

Борьба за жизнь / Kampen for tilværelsen / Struggle for Life
Год выхода: 2015
Страна: Норвегия
Жанр: драма
Продолжительность: 0:45:30
Перевод: Профессиональный (многоголосый закадровый) Eurochannel
Режиссёр: Бьорн Олаф Йоханессен, Эрленд Лу, Пер Шрайнер
В ролях: Бартек Камински, Ола Фурусет, Тоне Беата Мостраум, Трине Вигген
Описание: Жизнь в Уллевол Хагеби, как и во всем остальном мире, идет своим чередом. Томаш (Бартек Камински) получает постоянную работу в Институте лингвистики и нордических исследований, хотя это, возможно, не совсем то, на что он надеялся. Аннели (Хьерсти Сандал) встречает своего сына. Сьюзи (Нини Бакке Кристиансен) и Хьюго (Мэдс Оусдаль) пытаются справиться с потерей матери и супруги. У остальных свои собственные испытания и несчастья, с которыми приходится справляться.
Ссылка на предыдущие и альтернативные раздачи: [url=tracker.php?g=foreign_serials&nm=Kampen%20for%20tilvaerelsen]http://Torrentc/forum/tracker.php?g=foreign_serials...lvaerelsen[/url]
Сэмпл: http://multi-up.com/1173920
Качество: WEBRip
Формат файла: AVI
Видео: MPEG4, DivX 5, 704x320 (2.2:1), 25.000 fps, 1 310 Kbps (0.233 bit/pixel)
Аудио: AC-3, 48.0 KHz, 2 ch, 192 Kbps, CBR - русский
Аудио 2: AC-3, 48.0 KHz, 2 ch, 192 Kbps, CBR - норвежский
Субтитры: нет
Реклама:
нет

MediaInfo

Общее
Полное имя : M:\2x01 - Korak.avi
Формат файла : AVI
Формат файла/Информация : Audio Video Interleave
Размер файла : 553 Мбайт
Продолжительность : 45 м.
Общий поток : 1709 Кбит/сек
Название фильма : Борьба за жизнь. Сезон 2 / Kampen for tilvaerelsen. Sesong 2 (2015)
Программа кодирования : VirtualDubMod 1.5.10.2 (build 2540/release)
Библиотека кодирования : VirtualDubMod build 2540/release
Авторское право : miha2154
Видео
Идентификатор : 0
Формат файла : MPEG-4 Visual
Профиль формата : Advanced Simple@L5
Параметр BVOP формата : 1
Параметр QPel формата : Нет
Параметр GMC формата : Без точки перехода
Параметр матрицы формата : Выборочная
Идентификатор кодека : DX50
Идентификатор кодека/Подсказка : DivX 5
Продолжительность : 45 м.
Битрейт : 1310 Кбит/сек
Ширина : 704 пикселя
Высота : 320 пикселей
Соотношение сторон : 2,2:1
Частота кадров : 25,000 кадров/сек
Цветовое пространство : YUV
Субдискретизация насыщенности : 4:2:0
Битовая глубина : 8 бит
Тип развёртки : Прогрессивная
Метод сжатия : С потерями
Бит/(Пиксели*Кадры) : 0.233
Размер потока : 424 Мбайт (77%)
Библиотека кодирования : XviD 65
Аудио #1
Идентификатор : 1
Формат файла : AC-3
Формат файла/Информация : Audio Coding 3
Расширение режима : CM (complete main)
Параметр Endianness формата : Big
Идентификатор кодека : 2000
Продолжительность : 45 м.
Вид битрейта : Постоянный
Битрейт : 192 Кбит/сек
Каналы : 2 канала
Расположение каналов : Front: L R
Частота : 48,0 КГц
Частота кадров : 31,250 кадров/сек (1536 spf)
Метод сжатия : С потерями
Размер потока : 62,1 Мбайт (11%)
Выравнивание : Разделение по промежуткам
Продолжительность промежутка : 40 мс. (1,00 видеокадр)
Время предзагрузки промежутка : 500 мс.
Заголовок : Профессиональный (многоголосый закадровый) Eurochannel
Аудио #2
Идентификатор : 2
Формат файла : AC-3
Формат файла/Информация : Audio Coding 3
Расширение режима : CM (complete main)
Параметр Endianness формата : Big
Идентификатор кодека : 2000
Продолжительность : 45 м.
Вид битрейта : Постоянный
Битрейт : 192 Кбит/сек
Каналы : 2 канала
Расположение каналов : Front: L R
Частота : 48,0 КГц
Частота кадров : 31,250 кадров/сек (1536 spf)
Метод сжатия : С потерями
Размер потока : 62,1 Мбайт (11%)
Выравнивание : Разделение по промежуткам
Продолжительность промежутка : 40 мс. (1,00 видеокадр)
Время предзагрузки промежутка : 500 мс.
Заголовок : Норвежский

Скриншоты




[chi5o.com]_t_5473064.torrent
Торрент: Зарегистрирован ·  [ 2017-12-17 22:00 ] ·  2f42fcf855fd3034884b565dd097f4e1060f3ed0

23 KB

Статус: проверено
Скачан: 0 раз
Размер: 4.32 GB
Оценка: 
(Голосов: 0)
Сказали спасибо: 0  Спасибо
Похожие темы
[Профиль]    [ЛС]
Показать сообщения:    
Ответить на тему

Текущее время: Сегодня 12:36

Часовой пояс: GMT + 7



Вы не можете начинать темы
Вы не можете отвечать на сообщения
Вы не можете редактировать свои сообщения
Вы не можете удалять свои сообщения
Вы не можете голосовать в опросах
Вы не можете прикреплять файлы к сообщениям
Вы можете скачивать файлы


BLITZWOLF (54) | 1x 3D Logo Transformers Autobots Emblem Badge Decal Graphics Car Bike Truck | Construction Economics - 7335 Words