Холодное сердце / Hjerteratt / Сезон: 1 / Серии: 1-8 из 8 (Grethe Bøe-Waal, Nils Gaup / Грете Бое-Ваал, Нилс Гауп) [2013, Норвегия, драма, HDTVRip] MVO

Ответить на тему
Статистика раздачи [Обновить пиров]
Размер:  2.95 GB   |    Зарегистрирован:  1 год 2 месяца   |    Скачан:  0 раз

Полного источника не было: Никогда

Личеров:  3  [  0 KB/s  ]   Подробная статистика скачивающих
 
   
 
 
 
Автор Сообщение

chi5o.com

Создавать темы 11-Ноя-2017 23:42

[Цитировать]

Холодное сердце / Hjerteratt Год выхода: 2013
Страна: Норвегия
Жанр: драма
Продолжительность: ~ 00:25:00 серия
Перевод: Профессиональный (многоголосый закадровый)
Режиссёр: Grethe Bøe-Waal / Грете Бое-Ваал, Nils Gaup / Нилс Гауп
В ролях: Бьорн Алекс Олсен, Nils Eira, Gard Emil Elvenes, Anne Katja Gaup, Inger Caroline Gaup, Миккель Гауп, Нилс Педер Гауп, Sarakka Gaup, Sara Uhlving Hansen, Ina Marlene Hanssen
Описание: Городская девочка Аннели вынуждена переехать жить на север. Она находит хорошего друга в лице местного мальчика Исака, и вместе они обнаруживают, что арктический холод скрывает множество тайн. Практически без помощи взрослых они разгадывают тайну и раскрывают пугающую правду…
Ссылка на предыдущие и альтернативные раздачи: [url=tracker.php?nm=%D0%A5%D0%BE%D0%BB%D0%BE%D0%B4%D0%BD%D0%BE%D0%B5%20%D1%81%D0%B5%D1%80%D0%B4%D1%86%D0%B5%20%2F%20Hjerteratt]http://Torrentc/forum/tracker.php?nm=%D0%A5%D0%BE%D...Hjerteratt[/url]
Сэмпл: http://multi-up.com/1170356

Качество: HDTVRip
Формат файла: AVI
Видео: 720x400 (16:9), 25 fps, XviD, 1984 Кбит/сек avg, 0.276 bit/pixel
Аудио: [Русский] AC3, 48 kHz, 2 ch, 192 kbps
Субтитры: отсутствуют
Реклама: отсутствует

MediaInfo

Общее
Полное имя : D:\Холодное сердце (HDTVRIp)\Холодное сердце (01 серия).avi
Формат файла : AVI
Формат файла/Информация : Audio Video Interleave
Размер файла : 375 Мбайт
Продолжительность : 24 м.
Общий поток : 2184 Кбит/сек
Программа кодирования : VirtualDubMod 1.5.10.3 | www.virtualdub-fr.org || (build 2550/release)
Библиотека кодирования : VirtualDubMod build 2550/release
Видео
Идентификатор : 0
Формат файла : MPEG-4 Visual
Профиль формата : Advanced Simple@L5
Параметр BVOP формата : 1
Параметр QPel формата : Нет
Параметр GMC формата : Без точки перехода
Параметр матрицы формата : Default (MPEG)
Идентификатор кодека : XVID
Идентификатор кодека/Подсказка : XviD
Продолжительность : 24 м.
Битрейт : 1984 Кбит/сек
Ширина : 720 пикселей
Высота : 400 пикселей
Соотношение сторон : 16:9
Частота кадров : 25,000 кадров/сек
Цветовое пространство : YUV
Субдискретизация насыщенности : 4:2:0
Битовая глубина : 8 бит
Тип развёртки : Прогрессивная
Метод сжатия : С потерями
Бит/(Пиксели*Кадры) : 0.276
Размер потока : 341 Мбайт (91%)
Библиотека кодирования : XviD 1.2.1 (UTC 2008-12-04)
Аудио
Идентификатор : 1
Формат файла : AC-3
Формат файла/Информация : Audio Coding 3
Расширение режима : CM (complete main)
Параметр Endianness формата : Big
Идентификатор кодека : 2000
Продолжительность : 23 м.
Вид битрейта : Постоянный
Битрейт : 192 Кбит/сек
Каналы : 2 канала
Расположение каналов : Front: L R
Частота : 48,0 КГц
Битовая глубина : 16 бит
Метод сжатия : С потерями
Размер потока : 32,7 Мбайт (9%)
Выравнивание : Разделение по промежуткам
Продолжительность промежутка : 40 мс. (1,01 видеокадр)
Время предзагрузки промежутка : 500 мс.

Скриншоты меню

Скриншоты



[chi5o.com]_t_5460234.torrent
Торрент: Зарегистрирован ·  [ 2017-11-11 23:42 ] ·  8ed32a6542de9c1bba63a782996961eae4168277

16 KB

Статус: проверено
Скачан: 0 раз
Размер: 2.95 GB
Оценка: 
(Голосов: 0)
Сказали спасибо: 0  Спасибо
Похожие темы
[Профиль]    [ЛС]
Показать сообщения:    
Ответить на тему

Текущее время: Сегодня 12:40

Часовой пояс: GMT + 7



Вы не можете начинать темы
Вы не можете отвечать на сообщения
Вы не можете редактировать свои сообщения
Вы не можете удалять свои сообщения
Вы не можете голосовать в опросах
Вы не можете прикреплять файлы к сообщениям
Вы можете скачивать файлы


Faroeste | Danielle Staub Asks for Understanding Following Her Ill-Fated Wedding to Marty Caffrey: This Was Real to Me | Gyakusatsu Kikan