Полубрат / Halvbroren / The Half Brother / Сезон: 1 / Серии: 1-8 из 8 (Пер-Олав Сёренсен / Per-Olav Sørensen) [2013, Норвегия, драма, HDRip] VO (Web Money)

Ответить на тему
Статистика раздачи [Обновить пиров]
Размер:  5.7 GB   |    Зарегистрирован:  1 год 10 месяцев   |    Скачан:  1 раз

Полного источника не было: 1 год

 
   
 
 
 
Автор Сообщение

chi5o.com

Создавать темы 07-Мар-2017 23:06

[Цитировать]

Полубрат / Halvbroren / The Half Brother
Год выхода: 2013
Страна: Норвегия
Жанр: драма
Продолжительность: 00:44:50
Перевод: Любительский (одноголосый закадровый) - Project_Web_Money

Режиссёр: Пер-Олав Сёренсен / Per-Olav S ørensen
В ролях: Николай Клеве Брок, Франк Кьосос, Марианн Холе, Марианн Нильсен, Оскар Сандвен Лундевольд, Агнес Киттельсен, Вибеке Юэль Бугге, Йон Ёйгарден, Ларс Аренц-Хансен, Гита Нёрбю, Фридтьов Сохейм, Самуэль Фрёлер, Кюрре Хеллум, Бор Ове, Хенрик Местад, Тронд Бренне
Описание: Семейная сага, уместившая полвека — с конца Второй мировой до рубежа тысячелетий. В центре сюжета яркая и суровая история сводных братьев с изломанной психикой, связанных странной, ожесточенной и болезненной любовью-ненавистью. Братьев окружают женщины, сильные, страстные и потому одинокие: мать, которая в день окончания войны стала жертвой насилия, бабушка и прабабка — актриса немого кино, не сыгравшая ни одной роли--За появление Источник: torrentc и их спонсирование большое спасибо лорди74 и будулайроманов. Монтаж и сведение звука: лорди74. Перевод adelstein_s. За что ему Тоже большое спасибо!--[url=tracker.php?f=189,2366,842,819&nm=Halvbroren]Ссылка на предыдущие и альтернативные раздачи[/url]
Качество: [url=viewtopic.php?t=4781285]HDRip[/url]
Формат файла: AVI
Видео: 720x400 (1.80:1), 25 fps, XviD build 73 ~1799 kbps avg, 0.25 bit/pixel
Аудио: 48 kHz, AC3 Dolby Digital, 3/2 (L,C,R,l,r) LFE ch, ~448 kbps
Субтитры: отсутствуют

[url=http:// СПАМ

MediaInfo

Общее
Полное имя : H:\Halvbroren.2013_hdrip_[teko]\s01e01.avi
Формат файла : AVI
Формат файла/Информация : Audio Video Interleave
Размер файла : 724 Мбайт
Продолжительность : 44 м.
Общий поток : 2258 Кбит/сек
Программа кодирования : VirtualDubMod 1.5.10.3 | www.virtualdub-fr.org || (build 2550/release)
Библиотека кодирования : VirtualDubMod build 2550/release
Видео
Идентификатор : 0
Формат файла : MPEG-4 Visual
Профиль формата : Advanced Simple@L5
Параметр BVOP формата : 1
Параметр QPel формата : Нет
Параметр GMC формата : Без точки перехода
Параметр матрицы формата : Выборочная
Идентификатор кодека : XVID
Идентификатор кодека/Подсказка : XviD
Продолжительность : 44 м.
Битрейт : 1800 Кбит/сек
Ширина : 720 пикселей
Высота : 400 пикселей
Соотношение сторон : 16:9
Частота кадров : 25,000 кадров/сек
Цветовое пространство : YUV
Субдискретизация насыщенности : 4:2:0
Битовая глубина : 8 бит
Тип развёртки : Прогрессивная
Метод сжатия : С потерями
Бит/(Пиксели*Кадры) : 0.250
Размер потока : 577 Мбайт (80%)
Библиотека кодирования : XviD 73
Аудио
Идентификатор : 1
Формат файла : AC-3
Формат файла/Информация : Audio Coding 3
Расширение режима : CM (complete main)
Параметр Endianness формата : Big
Идентификатор кодека : 2000
Продолжительность : 44 м.
Вид битрейта : Постоянный
Битрейт : 448 Кбит/сек
Каналы : 6 каналов
Расположение каналов : Front: L C R, Side: L R, LFE
Частота : 48,0 КГц
Битовая глубина : 16 бит
Метод сжатия : С потерями
Размер потока : 144 Мбайт (20%)
Выравнивание : Разделение по промежуткам
Продолжительность промежутка : 40 мс. (1,00 видеокадр)
Время предзагрузки промежутка : 500 мс.

Скриншоты

:
-
-


[chi5o.com]_t_4947204.torrent
Торрент: Зарегистрирован ·  [ 2017-03-07 23:06 ] ·  3e60348c9728b80e27a92fc4bf71365101a82f23

29 KB

Статус: проверено
Скачан: 1 раз
Размер: 5.7 GB
Оценка: 
(Голосов: 0)
Сказали спасибо: 0  Спасибо
Похожие темы
[Профиль]    [ЛС]
Показать сообщения:    
Ответить на тему

Текущее время: Сегодня 11:24

Часовой пояс: GMT + 7



Вы не можете начинать темы
Вы не можете отвечать на сообщения
Вы не можете редактировать свои сообщения
Вы не можете удалять свои сообщения
Вы не можете голосовать в опросах
Вы не можете прикреплять файлы к сообщениям
Вы можете скачивать файлы


הזמנות שלי | 5pcs Dental Adhesive Composite Cement Porcelain Teeth Silicone Brush Pen Grey | Beste Ergebnisse