Добро пожаловать в Швецию / Welcome to Sweden / Сезон: 1 / Серии: 1-6 из 10 (Карл Остранд) [2014, Швеция, США, комедия, HDTVRip-AVC] Original + Sub Rus (Translators\' Alliance) + Sub Eng

Ответить на тему
Статистика раздачи [Обновить пиров]
Размер:  1 GB   |    Зарегистрирован:  1 год 10 месяцев   |    Скачан:  1 раз

Полного источника не было: 11 месяцев 13 дней

 
   
 
 
 
Автор Сообщение

chi5o.com

Создавать темы 07-Мар-2017 23:06

[Цитировать]

Добро пожаловать в Швецию / Welcome to Sweden Год выхода: 2014
Страна: Швеция, США
Жанр: комедия
Продолжительность: ~ 00:20:00
Перевод: Субтитры [Translators' Alliance]
Режиссёр: Карл Остранд-В ролях: Грег Полер, Жозефин Борнебуш, Клаес Манссон, Лена Олин, Сара Перссон, Патрик Даффи, Уилл Феррелл, Дженни Хаттон, Обри Пласа, Эми Полер и др.-Описание: Нью-Йоркский бухгалтер Брюс решает переехать в Швецию после того, как влюбляется в шведскую девушку.-Качество: HDTVRip-AVC
Формат файла: MP4
Видео кодек: H.264
Аудио кодек: AAC
Видео: 720x404, 25.000 fps, x264 ~790 kbps avg, 0.108 bit/pixel
Аудио: 48 kHz, AAC LC, 2 ch, ~128.00 kbps avg
Субтитры: Английский хардсаб на шведскую речь, Русские (Translators' Alliance), Английские
Переводчики: Vela, alekartem, Алексей Баранов (4)-[url=tracker.php?f=189,2366,842,819&nm=Welcome+to+Sweden]Все раздачи сериала[/url] / Сэмпл / TVRAGE / TV.com / IMDB / КиноПоиск-

MediaInfoWelcome.to.Sweden.2014.S01E01.PROPER.HDTV.x264.mp4

General
Complete name                            : D:\НБФ\19456\Welcome.to.Sweden.2014.S01.HDTV.x264\Welcome.to.Sweden.2014.S01E01.PROPER.HDTV.x264.mp4
Format                                   : MPEG-4
Format profile                           : Base Media
Codec ID                                 : isom
File size                                : 236 MiB
Duration                                 : 21mn 27s
Overall bit rate mode                    : Variable
Overall bit rate                         : 1 535 Kbps
Encoded date                             : UTC 2014-07-20 04:43:58
Tagged date                              : UTC 2014-07-20 04:43:58
Video
ID                                       : 2
Format                                   : AVC
Format/Info                              : Advanced Video Codec
Format profile                           : High@L3.1
Format settings, CABAC                   : Yes
Format settings, ReFrames                : 5 frames
Codec ID                                 : avc1
Codec ID/Info                            : Advanced Video Coding
Duration                                 : 21mn 27s
Bit rate                                 : 1 395 Kbps
Maximum bit rate                         : 2 874 Kbps
Width                                    : 720 pixels
Height                                   : 404 pixels
Display aspect ratio                     : 16:9
Frame rate mode                          : Constant
Frame rate                               : 25.000 fps
Color space                              : YUV
Chroma subsampling                       : 4:2:0
Bit depth                                : 8 bits
Scan type                                : Progressive
Bits/(Pixel*Frame)                       : 0.192
Stream size                              : 214 MiB (91%)
Writing library                          : x264 core 142 r2431 ac76440
Encoding settings                        : cabac=1 / ref=5 / deblock=1:0:0 / analyse=0x3:0x113 / me=umh / subme=8 / psy=1 / psy_rd=1.00:0.00 / mixed_ref=1 / me_range=16 / chroma_me=1 / trellis=1 / 8x8dct=1 / cqm=0 / deadzone=21,11 / fast_pskip=1 / chroma_qp_offset=-2 / threads=12 / lookahead_threads=2 / sliced_threads=0 / nr=0 / decimate=1 / interlaced=0 / bluray_compat=0 / constrained_intra=0 / bframes=3 / b_pyramid=2 / b_adapt=2 / b_bias=0 / direct=3 / weightb=1 / open_gop=0 / weightp=2 / keyint=250 / keyint_min=25 / scenecut=40 / intra_refresh=0 / rc_lookahead=50 / rc=crf / mbtree=1 / crf=19.0 / qcomp=0.60 / qpmin=0 / qpmax=69 / qpstep=4 / ip_ratio=1.40 / aq=1:1.00
Encoded date                             : UTC 2014-07-20 04:25:08
Tagged date                              : UTC 2014-07-20 04:43:59
Matrix coefficients                      : BT.709
Audio
ID                                       : 1
Format                                   : AAC
Format/Info                              : Advanced Audio Codec
Format profile                           : LC
Codec ID                                 : 40
Duration                                 : 21mn 27s
Bit rate mode                            : Variable
Bit rate                                 : 136 Kbps
Maximum bit rate                         : 182 Kbps
Channel(s)                               : 2 channels
Channel positions                        : Front: L R
Sampling rate                            : 48.0 KHz
Compression mode                         : Lossy
Stream size                              : 20.8 MiB (9%)
Encoded date                             : UTC 2014-07-20 04:43:58
Tagged date                              : UTC 2014-07-20 04:43:59

Welcome.to.Sweden.2014.S01E03.HDTV.x264.mp4

General
Complete name                            : D:\НБФ\19456\Welcome.to.Sweden.2014.S01.HDTV.x264\Welcome.to.Sweden.2014.S01E03.HDTV.x264.mp4
Format                                   : MPEG-4
Format profile                           : Base Media
Codec ID                                 : isom
File size                                : 135 MiB
Duration                                 : 20mn 48s
Overall bit rate mode                    : Variable
Overall bit rate                         : 910 Kbps
Encoded date                             : UTC 2014-07-25 01:08:05
Tagged date                              : UTC 2014-07-25 01:08:05
Video
ID                                       : 1
Format                                   : AVC
Format/Info                              : Advanced Video Codec
Format profile                           : High@L3.1
Format settings, CABAC                   : Yes
Format settings, ReFrames                : 5 frames
Codec ID                                 : avc1
Codec ID/Info                            : Advanced Video Coding
Duration                                 : 20mn 48s
Source duration                          : 10mn 18s
Bit rate                                 : 786 Kbps
Maximum bit rate                         : 2 716 Kbps
Width                                    : 720 pixels
Height                                   : 404 pixels
Display aspect ratio                     : 16:9
Frame rate mode                          : Constant
Frame rate                               : 25.000 fps
Color space                              : YUV
Chroma subsampling                       : 4:2:0
Bit depth                                : 8 bits
Scan type                                : Progressive
Bits/(Pixel*Frame)                       : 0.108
Stream size                              : 117 MiB (86%)
Source stream size                       : 117 MiB (86%)
Writing library                          : x264 core 142 r2431 ac76440
Encoding settings                        : cabac=1 / ref=5 / deblock=1:1:1 / analyse=0x3:0x133 / me=umh / subme=9 / psy=1 / psy_rd=1.00:0.00 / mixed_ref=1 / me_range=16 / chroma_me=1 / trellis=2 / 8x8dct=1 / cqm=0 / deadzone=21,11 / fast_pskip=0 / chroma_qp_offset=-2 / threads=8 / lookahead_threads=1 / sliced_threads=0 / nr=0 / decimate=1 / interlaced=0 / bluray_compat=0 / constrained_intra=0 / bframes=3 / b_pyramid=2 / b_adapt=2 / b_bias=0 / direct=3 / weightb=1 / open_gop=0 / weightp=2 / keyint=250 / keyint_min=25 / scenecut=40 / intra_refresh=0 / rc_lookahead=60 / rc=crf / mbtree=1 / crf=19.0 / qcomp=0.60 / qpmin=0 / qpmax=69 / qpstep=4 / ip_ratio=1.40 / aq=1:1.00
Encoded date                             : UTC 2014-07-25 00:47:46
Tagged date                              : UTC 2014-07-25 01:08:06
Matrix coefficients                      : BT.709
mdhd_Duration                            : 1248375
Audio
ID                                       : 2
Format                                   : AAC
Format/Info                              : Advanced Audio Codec
Format profile                           : LC
Codec ID                                 : 40
Duration                                 : 20mn 48s
Bit rate mode                            : Variable
Bit rate                                 : 120 Kbps
Maximum bit rate                         : 144 Kbps
Channel(s)                               : 2 channels
Channel positions                        : Front: L R
Sampling rate                            : 48.0 KHz
Compression mode                         : Lossy
Stream size                              : 17.8 MiB (13%)
Encoded date                             : UTC 2014-07-25 01:08:06
Tagged date                              : UTC 2014-07-25 01:08:06

Скриншоты


-

Внимание! Раздача ведется путем добавления новых серий

Внимание! Раздача ведётся путём добавления новых серий; при каждом добавлении создаётся новый торрент. Чтобы начать докачку новой серии, пользователям необходимо сделать следующее:
(1) остановить скачивание,
(2) удалить старый торрент-файл у себя из клиента (старые серии удалять не надо),
(3) скачать новый торрент-файл из раздачи и запустить его у себя в клиенте вместо старого, при этом указать клиенту путь в старую папку, куда и должно происходить скачивание новых серий.
Ваш клиент при этом должен произвести хеширование (проверку) старой папки (если не производит сам - помогите ему сделать это), и будет докачивать только те серии, которых у Вас ещё нет. Старые серии при этом не удаляются, а продолжают раздаваться!
Eсли Вы уже посмотрели и удалили старые серии, то предотвратить повторную закачку старых серий можно, сняв галочки в соответсвующих местах при запуске нового торрента. По возможности, желательно не удалять старые серии как можно дольше чтобы релизёр не столько продолжал раздавать старые серии, сколько сконцентрироваться на новых.


[chi5o.com]_t_4782459.torrent
Торрент: Зарегистрирован ·  [ 2017-03-07 23:06 ] ·  c108740bfe645a97e07d80b4b903477e4c90b829

12 KB

Статус: проверено
Скачан: 1 раз
Размер: 1 GB
Оценка: 
(Голосов: 0)
Сказали спасибо: 0  Спасибо
Похожие темы
[Профиль]    [ЛС]
Показать сообщения:    
Ответить на тему

Текущее время: Сегодня 11:41

Часовой пояс: GMT + 7



Вы не можете начинать темы
Вы не можете отвечать на сообщения
Вы не можете редактировать свои сообщения
Вы не можете удалять свои сообщения
Вы не можете голосовать в опросах
Вы не можете прикреплять файлы к сообщениям
Вы можете скачивать файлы


Umbrella Accessories For 18 inch For American Girl/Baby Dolls Handmade Kids Toys | Alpha.Wolf.2018.1080p.WEB-DL.H264.AC3-EVO[TGx] | Housing Contemporary Ireland Policy, Society and Shelter