Дом 3: Шоу ужасов / The Horror Show (Джеймс Исаак, Дэвид Блит / James Isaac, David Blyth) [1989, США, ужасы, DVDRip] DVO (неизвестный с VHS) + AVO (Визгунов)

Ответить на тему
Статистика раздачи [Обновить пиров]
Размер:  866 MB   |    Зарегистрирован:  1 год 10 месяцев   |    Скачан:  0 раз

Полного источника не было: Никогда

Личеров:  2  [  0 KB/s  ]   Подробная статистика скачивающих
 
   
 
 
 
Автор Сообщение

chi5o.com

Создавать темы 07-Мар-2017 20:55

[Цитировать]

Дом 3: Шоу ужасов / The Horror Show-Страна: США
Жанр: Ужасы
Год выхода: 1989
Продолжительность: 01:30:13-Перевод 1: Профессиональный (двухголосый закадровый)
Перевод 2: Авторский (одноголосый закадровый) Визгунов
-Cубтитры: нет
Оригинальная аудиодорожка: нет-Режиссер: Джеймс Исаак / James Isaac, Дэвид Блит / DAVId Blyth-В ролях: Лэнс Хенриксен, Брайон Джеймс, Рита Таггарт, Диди Пфайффер, Арон Эйзенберг, Том Брэй, Мэтт Кларк, Дэвид Оливер, Терри Александр, Льюис Аркетт-Описание: Убийца мистическим образом оживает и мстит семье полицейского, арестовавшего его. Их сны превращаются в жуткие кошмары…-Релиз от: -Качество видео: DVDRip
Формат файла: AVI-Видео: 640x288 (2.222), 25.000 fps, DivX3 ~943 kbps avg
Аудио 1: 48 kHz, AC3 Dolby Digital, 2/0 (L,R) ch, ~256.00 kbps avg (DVO) | torrentc
Аудио 2: 48 kHz, MP3, 2/0 (L,R) ch, ~128.00 kbps avg (Визгунов)

MediaInfo

Общее
Полное имя : D:\скачано\Dom_3_torrentc.org.avi
Формат : AVI
Формат/Информация : Audio Video Interleave
Размер файла : 866 Мбайт
Продолжительность : 1 ч. 30 м.
Общий поток : 1342 Кбит/сек
Программа кодирования : VirtualDubMod 1.5.10.2 (build 2540/release)
Библиотека кодирования : VirtualDubMod build 2540/release
Видео
Идентификатор : 0
Формат : MPEG-4 Visual
Идентификатор кодека : DIV3
Идентификатор кодека/Подсказка : DivX 3 Low
Продолжительность : 1 ч. 30 м.
Битрейт : 943 Кбит/сек
Ширина : 640 пикс.
Высота : 288 пикс.
Соотношение сторон : 2,222
Частота кадров : 25,000 кадр/сек
Цветовое пространство : YUV
Подвыборка цветности : 4:2:0
Битовая глубина : 8 бит
Метод сжатия : С потерями
Бит/(Пиксели*Кадры) : 0.205
Размер потока : 608 Мбайт (70%)
Аудио #1
Идентификатор : 1
Формат : AC-3
Формат/Информация : Audio Coding 3
Расширение режима : CM (complete main)
Идентификатор кодека : 2000
Продолжительность : 1 ч. 30 м.
Вид битрейта : Постоянный
Битрейт : 256 Кбит/сек
Каналы : 2 канала
Расположение каналов : Front: L R
Частота : 48,0 КГц
Битовая глубина : 16 бит
Метод сжатия : С потерями
Размер потока : 165 Мбайт (19%)
Выравнивание : Разделение по промежуткам
Продолжительность промежутка : 40 мс. (1,00 видеокадр)
Время предзагрузки промежутка : 500 ms
Аудио #2
Идентификатор : 2
Формат : MPEG Audio
Версия формата : Version 1
Профиль формата : Layer 3
Режим : Joint stereo
Расширение режима : MS Stereo
Идентификатор кодека : 55
Идентификатор кодека/Подсказка : MP3
Продолжительность : 1 ч. 30 м.
Вид битрейта : Постоянный
Битрейт : 128 Кбит/сек
Каналы : 2 канала
Частота : 48,0 КГц
Метод сжатия : С потерями
Размер потока : 82,6 Мбайт (10%)
Выравнивание : Соединение по промежуткам
Продолжительность промежутка : 40 мс. (1,00 видеокадр)
Время предзагрузки промежутка : 504 ms

Скриншот c названием фильма

Скриншоты



[chi5o.com]_Dom_3.avi.torrent.torrent
Торрент: Зарегистрирован ·  [ 2017-03-07 21:04 ] ·  59307c48addc5dd3f66fd1e6f33bd4e3c13ada5f

18 KB

Статус: проверено
Скачан: 0 раз
Размер: 866 MB
Оценка: 
(Голосов: 0)
Сказали спасибо: 0  Спасибо
Похожие темы
[Профиль]    [ЛС]
Показать сообщения:    
Ответить на тему

Текущее время: Сегодня 02:34

Часовой пояс: GMT + 7



Вы не можете начинать темы
Вы не можете отвечать на сообщения
Вы не можете редактировать свои сообщения
Вы не можете удалять свои сообщения
Вы не можете голосовать в опросах
Вы не можете прикреплять файлы к сообщениям
Вы можете скачивать файлы


FiLMiC PRO 6.0.2 APK Cracked | Короткометражный | Onepunch-Man 36