Раздетая для убийства 2 / Stripped to Kill 2: Live Girls (Кэтт Ши / Katt Shea) [1989, США, Триллер, DVDRip] AVO (Андрей Дольский) + Original Eng

Ответить на тему
Статистика раздачи [Обновить пиров]
Размер:  1.57 GB   |    Зарегистрирован:  11 дней   |    Скачан:  0 раз

Полного источника не было: Никогда

 
   
 
 
 
Автор Сообщение

chi5o.com

Создавать темы 11-Янв-2019 23:59

[Цитировать]

Раздетая для убийства 2 / Stripped to Kill 2: Live Girls
Страна: США
Жанр: Триллер
Год выхода: 1989
Продолжительность: 01:22:30
Перевод: Авторский (одноголосый закадровый) Андрей Дольский
Субтитры: нет
Оригинальная аудиодорожка: английский
Режиссер: Кэтт Ши / Katt Shea
В ролях: Мария Форд, Эб Лоттимер, Карен Майо-Чэндлер, Марджин Холден, Birke Tan, Дебра Ламб,
Джанин Бисиньяно, Лиза Глейсер, Том Рубен, Дж. Бартелл
Описание: Действие происходит в одном из стриптиз — клубов Лос-Анджелеса, где одна за другой
начинают погибать стриптизерши. Героиня Марии Форд обладает сверхъестественными
способностями — она видит во снах убийства еще до того момента, как они происходят.
Доп. информация: Дорожка с А. Дольским подогнана и наложена ale_x2008 при помощи Sony Vegas и VirtualDubMod.
За наводку спасибо Serg377

Сэмпл: http://yadi.sk/i/1VnjnRJzx9V4PA
Качество видео: DVDRip
Формат файла: AVI
Видео: XviD, 640x480 (1.33:1), 23.976 fps, 2328 kbps avg, 0.32 bit/pixel
Аудио: AC3 Dolby Digital, 48000Hz, 2/0 (L,R) ch (mono), 192 kbps avg
Аудио 2: 48 kHz, AC3 Dolby Digital, 2/0 (L,R) ch, ~192 kbps

MediaInfo

Раздетая для убийства 2 - Stripped to Kill 2 Live Girls (by ale_x2008).aviFormat : AVIFormat/Info : Audio Video InterleaveFile size : 1.57 GiBDuration : 1 h 22 minOverall bit rate : 2 727 kb/sMovie name : Раздетая для убийства 2 - Stripped to Kill 2 Live Girls (by ale_x2008)Director : by ale_x2008Writing application : VirtualDubMod 1.5.10.2 (build 2540/release)Copyright : Edich2Comment : Torrentc
VideoID : 0Format : MPEG-4 VisualFormat profile : Advanced Simple@L5Format settings : BVOP2Format settings, BVOP : 2Format settings, QPel : NoFormat settings, GMC : No warppointsFormat settings, Matrix : Default (H.263)Codec ID : XVIDCodec ID/Hint : XviDDuration : 1 h 22 minBit rate : 2 328 kb/sWidth : 640 pixelsHeight : 480 pixelsDisplay aspect ratio : 4:3Frame rate : 23.976 (24000/1001) FPSColor space : YUVChroma subsampling : 4:2:0Bit depth : 8 bitsScan type : ProgressiveCompression mode : LossyBits/(Pixel*Frame) : 0.316Stream size : 1.34 GiB (85%)Writing library : XviD 1.0.3 (UTC 2004-12-20)
Audio #1ID : 1Format : AC-3Format/Info : Audio Coding 3Codec ID : 2000Duration : 1 h 22 minBit rate mode : ConstantBit rate : 192 kb/sChannel(s) : 2 channelsChannel positions : Front: L RSampling rate : 48.0 kHzFrame rate : 31.250 FPS (1536 SPF)Bit depth : 16 bitsCompression mode : LossyStream size : 113 MiB (7%)Alignment : Split accross interleavesInterleave, duration : 42 ms (1.00 video frame)Interleave, preload duratio : 500 msService kind : Complete Main
Audio #2ID : 2Format : AC-3Format/Info : Audio Coding 3Codec ID : 2000Duration : 1 h 22 minBit rate mode : ConstantBit rate : 192 kb/sChannel(s) : 2 channelsChannel positions : Front: L RSampling rate : 48.0 kHzFrame rate : 31.250 FPS (1536 SPF)Bit depth : 16 bitsCompression mode : LossyStream size : 113 MiB (7%)Alignment : Split accross interleavesInterleave, duration : 42 ms (1.00 video frame)Interleave, preload duratio : 500 msService kind : Complete Main

Скриншоты




[chi5o.com]_t_5672087.torrent
Торрент: Зарегистрирован ·  [ 2019-01-11 23:59 ] ·  fe1d7a4b46a07d24bf16b8189f25a6ca7dbf3fa6

16 KB

Статус: проверено
Скачан: 0 раз
Размер: 1.57 GB
Оценка: 
(Голосов: 0)
Сказали спасибо: 0  Спасибо
Похожие темы
[Профиль]    [ЛС]
Показать сообщения:    
Ответить на тему

Текущее время: Сегодня 02:05

Часовой пояс: GMT + 7



Вы не можете начинать темы
Вы не можете отвечать на сообщения
Вы не можете редактировать свои сообщения
Вы не можете удалять свои сообщения
Вы не можете голосовать в опросах
Вы не можете прикреплять файлы к сообщениям
Вы можете скачивать файлы


Stand-up ; Spectacle | HidupMusik | Filmkomödie