Невеста / The Bride (Фрэнк Роддэм / Franc Roddam) [1985, США, Великобритания, Ужасы, фэнтази, VHSRip] [FullScreen] MVO (Видеосервис)

Ответить на тему
Статистика раздачи [Обновить пиров]
Размер:  1.46 GB   |    Зарегистрирован:  11 дней   |    Скачан:  0 раз

Полного источника не было: Никогда

 
   
 
 
 
Автор Сообщение

chi5o.com

Создавать темы 11-Янв-2019 22:57

[Цитировать]

Невеста / The Bride
[FullScreen]
«Dr. Frankenstein invites you to meet his newest creation»
Страна: США, Великобритания
Жанр: Ужасы, фэнтази
Год выхода: 1985
Продолжительность: 01:54:01
Перевод: Профессиональный (многоголосый закадровый) Видеосервис
Субтитры: нет
Режиссер: Фрэнк Роддэм / Franc Roddam
В ролях: Стинг /Sting/, Дженнифер Билз /Jennifer Beals/, Энтони Хиггинс /Anthony Higgins/, Клэнси Браун /Clancy Brown/, Дэвид Раппапорт /David Rappaport/, Джералдин Пэйдж /Geraldine Page/, Алексей Сэйл /Alexei Sayle/, Фил Дэниэлс /Phil Daniels/, Верушка фон Лендорфф /Veruschka von Lehndorff/, Квентин Крисп /Quentin Crisp/, Кэри Элвес /Cary Elwes/, Тимоти Сполл /Timothy Spall/, Кен Кэмпбелл /Ken Campbell/, Гай Ролф /Guy Rolfe/, Энди де ла Тур /Andy de la Tour/
Описание: #1.Ученый Чарлз Франкенштейн создает из останков человеческих тел прекрасную женщину. Безумный доктор мечтает, чтобы она стала невестой Виктора, плода его черной фантазии. Но красавица Ева отвергает чудовищного жениха. И тогда Виктор обращает весь накопившийся гнев на своего создателя...
#2.Из останков человеческих тел доктор Франкенштейн создает прекрасную женщину. Безумный ученый хочет, чтобы она стала невестой Виктора, уродливого порождения его черной фантазии. Но божественная Ева отвергает чудовищного жениха. И тогда оскорбленный монстр обращает гнев на своего создателя. Скоро доктор Франкенштейн действительно может оказаться на торжественной церемонии... венчания со смертью...
#3.Очередная затянутая история о бароне Франкенштейне от режиссера Френка Роддема. Хорошие костюмы и пейзажи. Барон Чарльз Франкенштейн (Стинг) создал своему монстру невесту, но она оказалась так хороша собой и умна, что он решил оставить ее себе. Виктор (первый монстр) бежал от своего создателя и стал бродягой. По дороге он встретил карлика, с которым подружился, и вскоре они присоединились к группе странствующих циркачей. В конце Ева влюбляется в красивого, но не очень честного военного (Кэри Элвис), и отказывается стать любовницей барона. От рук Чарльза ее спасает Виктор, который убивает своего обезумевшего творца. Все счастливы... (AnthonyHiggins.narod.ru)
Доп. информация: Оцифровка лицензионной VHS (личный архив) и получение VHSRip alenavova
Эксклюзив для Torrentc. При размещении данного релиза на других сайтах ссылка на автора alenavova обязательна.


Сэмпл: http://yadi.sk/i/XveX-7LARgOejQ
Качество видео: VHSRip
Формат файла: AVI
Видео: 704x528 (1.33:1), 25 fps, XviD build 73 ~1635 kbps avg, 0.18 bit/pixel
Аудио: 48 kHz, AC3 Dolby Digital, 2/0 (L,R) ch, ~192 kbps

MediaInfo

Невеста - The Bride (by alenavova)_FS.aviFormat : AVIFormat/Info : Audio Video InterleaveFile size : 1.46 GiBDuration : 1 h 54 minOverall bit rate : 1 837 kb/sMovie name : Невеста - The Bride (by alenavova)_FSDirector : by alenavovaWriting application : VirtualDubMod 1.5.10.3 | www.virtualdub-fr.org || (build 2550/release)Copyright : Edich2Comment : Torrentc
VideoID : 0Format : MPEG-4 VisualFormat profile : Advanced Simple@L5Format settings : BVOP1 / Custom MatrixFormat settings, BVOP : 1Format settings, QPel : NoFormat settings, GMC : No warppointsFormat settings, Matrix : CustomCodec ID : XVIDCodec ID/Hint : XviDDuration : 1 h 54 minBit rate : 1 635 kb/sWidth : 704 pixelsHeight : 528 pixelsDisplay aspect ratio : 4:3Frame rate : 25.000 FPSColor space : YUVChroma subsampling : 4:2:0Bit depth : 8 bitsScan type : ProgressiveCompression mode : LossyBits/(Pixel*Frame) : 0.176Stream size : 1.30 GiB (89%)Writing library : XviD 73
AudioID : 1Format : AC-3Format/Info : Audio Coding 3Codec ID : 2000Duration : 1 h 54 minBit rate mode : ConstantBit rate : 192 kb/sChannel(s) : 2 channelsChannel positions : Front: L RSampling rate : 48.0 kHzFrame rate : 31.250 FPS (1536 SPF)Bit depth : 16 bitsCompression mode : LossyStream size : 157 MiB (10%)Alignment : Split accross interleavesInterleave, duration : 40 ms (1.00 video frame)Interleave, preload duratio : 500 msService kind : Complete Main

Скриншоты




[chi5o.com]_t_5672911.torrent
Торрент: Зарегистрирован ·  [ 2019-01-11 22:57 ] ·  95893248c7b9290f3574598890245cc673e57a9b

15 KB

Статус: проверено
Скачан: 0 раз
Размер: 1.46 GB
Оценка: 
(Голосов: 0)
Сказали спасибо: 0  Спасибо
Похожие темы
[Профиль]    [ЛС]
Показать сообщения:    
Ответить на тему

Текущее время: Сегодня 02:08

Часовой пояс: GMT + 7



Вы не можете начинать темы
Вы не можете отвечать на сообщения
Вы не можете редактировать свои сообщения
Вы не можете удалять свои сообщения
Вы не можете голосовать в опросах
Вы не можете прикреплять файлы к сообщениям
Вы можете скачивать файлы


Dictionary M W Premium 4.2.0 APK | Johnny English contre-attaque (2018) | Connect with us on Facebook