Любовь на горячем песке / Nackte Liebe im heissen Sand / Sonne, Sylt und kesse Krabben / Ready, Willing and Able (Джерси Макк / Jerzy Macc) [1971, Германия (ФРГ), Эротическая комедия, DVDRip] VO + Original Deu

Ответить на тему
Статистика раздачи [Обновить пиров]
Размер:  1.37 GB   |    Зарегистрирован:  13 дней   |    Скачан:  1 раз

Полного источника не было: 9 дней

 
   
 
 
 
Автор Сообщение

chi5o.com

Создавать темы 09-Янв-2019 22:53

[Цитировать]

Любовь на горячем песке / Nackte Liebe im heissen Sand / Sonne, Sylt und kesse Krabben / Ready, Willing and Able
Страна: Германия (ФРГ)
Жанр: Эротическая комедия
Год выхода: 1971
Продолжительность: 01:15:09
Перевод: Одноголосый закадровый
Субтитры: нет
Оригинальная аудиодорожка: Немецкий
Режиссер: Джерси Макк / Jerzy Macc
В ролях: Кристин Шуберт, Ахим Стртцель, Ингрид Стегер, Вольфганг Грунер
Описание: Победив в конкурсе красоты очаровательные блондинки Катрин и Ингрид решают провести время летом на острове Зюльт, знаменитым своим нудистскими пляжами, ночными клубами и множеством привлекательных мужчин. Среди посетителей острова фабрикант Вебер, который готов ради горячего флирта пойти на все. Но только девушки предпочитают молодых...
Доп. информация: DVD Rip За диск Спасибо rotorovv за Рус дорожку Спасибо Voldemar 48
Сэмпл: http://multi-up.com/1219850
Качество видео: DVDRip
Формат файла: AVI
Видео: XviD 688х432, 25.000 fps, 2 210 Kbps
Аудио 1: Русский (AC3 192 kbps 2 ch 48.0 KHz)
Аудио 2: Немецкий (AC3 192 kbps 2 ch 48.0 KHz)

MediaInfo

GeneralComplete name : C:\Documents and Settings\admin\Мои документы\Downloads\Nackte Liebe im heissen Sand AVI.aviFormat : AVIFormat/Info : Audio Video InterleaveFile size : 1.37 GiBDuration : 1h 15mnOverall bit rate : 2 609 KbpsWriting application : VirtualDubMod 1.5.4.1 (build 2066/release)Writing library : VirtualDubMod build 2066/release
VideoID : 0Format : MPEG-4 VisualFormat profile : Advanced Simple@L5Format settings, BVOP : 1Format settings, QPel : NoFormat settings, GMC : No warppointsFormat settings, Matrix : CustomCodec ID : XVIDCodec ID/Hint : XviDDuration : 1h 15mnBit rate : 2 210 KbpsWidth : 688 pixelsHeight : 432 pixelsDisplay aspect ratio : 16:10Frame rate : 25.000 fpsColor space : YUVChroma subsampling : 4:2:0Bit depth : 8 bitsScan type : ProgressiveCompression mode : LossyBits/(Pixel*Frame) : 0.297Stream size : 1.16 GiB (85%)Writing library : XviD 64
Audio #1ID : 1Format : AC-3Format/Info : Audio Coding 3Mode extension : CM (complete main)Format settings, Endianness : BigCodec ID : 2000Duration : 1h 15mnBit rate mode : ConstantBit rate : 192 KbpsChannel(s) : 2 channelsChannel positions : Front: L RSampling rate : 48.0 KHzBit depth : 16 bitsCompression mode : LossyStream size : 103 MiB (7%)Alignment : Split accross interleavesInterleave, duration : 40 ms (1.00 video frame)Interleave, preload duration : 500 msLanguage : Russian
Audio #2ID : 2Format : AC-3Format/Info : Audio Coding 3Mode extension : CM (complete main)Format settings, Endianness : BigCodec ID : 2000Duration : 1h 15mnBit rate mode : ConstantBit rate : 192 KbpsChannel(s) : 2 channelsChannel positions : Front: L RSampling rate : 48.0 KHzBit depth : 16 bitsCompression mode : LossyStream size : 103 MiB (7%)Alignment : Split accross interleavesInterleave, duration : 40 ms (1.00 video frame)Interleave, preload duration : 500 msLanguage : Deutsch

Скриншот c названием фильма



[chi5o.com]_t_5671877.torrent
Торрент: Зарегистрирован ·  [ 2019-01-09 22:53 ] ·  48850e033682fb2701b98089fa35993789f252df

14 KB

Статус: проверено
Скачан: 1 раз
Размер: 1.37 GB
Оценка: 
(Голосов: 0)
Сказали спасибо: 0  Спасибо
Похожие темы
[Профиль]    [ЛС]
Показать сообщения:    
Ответить на тему

Текущее время: Сегодня 02:03

Часовой пояс: GMT + 7



Вы не можете начинать темы
Вы не можете отвечать на сообщения
Вы не можете редактировать свои сообщения
Вы не можете удалять свои сообщения
Вы не можете голосовать в опросах
Вы не можете прикреплять файлы к сообщениям
Вы можете скачивать файлы


Stan Against Evil HDTV | Ava Addams | 2019-01-17 | Kohle 3 cm 10 St Drei Könige Holland уголь кадильный 3 см 10 штук Три короля