Девушка с лунной кожей / La ragazza dalla pelle di luna / The Sinner (Луиджи Скаттини / Luigi Scattini) [1974, Италия, Мелодрама, DVDRip] VO (Неизвестный)

Ответить на тему
Статистика раздачи [Обновить пиров]
Размер:  1.45 GB   |    Зарегистрирован:  13 дней   |    Скачан:  0 раз

Полного источника не было: Никогда

 
   
 
 
 
Автор Сообщение

chi5o.com

Создавать темы 09-Янв-2019 11:02

[Цитировать]

Девушка с лунной кожей / La ragazza dalla pelle di luna / The Sinner
Страна: Италия
Жанр: Мелодрама
Год выхода: 1974
Продолжительность: 01:27:18
Перевод: Одноголосый закадровый (Неизвестный)
Субтитры: нет
Режиссер: Луиджи Скаттини / Luigi Scattini
В ролях: Уго Пальяи
Беба Лончар
Джакомо Росси Стюарт
Зеуди Арая Кристальди
Описание: Молодая семейная пара, итальянский инженер Альберто и модный фотограф англичанка Хелен, переживает кризис в отношениях. В попытке укрепить свой союз, они отправляются на Сейшельские острова. Но на отдыхе Альберто влюбляется в очаровательную местную девушку. Обнаружив предательство, Хелен сгорает от ревности и ищет утешения в объятиях писателя…
Доп. информация: Звуковая дорожка снята и синхронизирована мною с VHS
Видеоряд найден в сети
Сэмпл: http://yadi.sk/i/MHNiS_KHQ5nnpQ
Качество видео: DVDRip
Формат файла: AVI
Видео: XviD , 720x432(1.67:1), 25.000 fps, 2 179 Kbps
Аудио: AC3 , 48 kHz , 192.00 kbps avg , 2/0 (L,R) ch

MediaInfo

Complete name Девушка с лунной кожей 1974 (VO).aviFormat : AVIFormat/Info : Audio Video InterleaveFile size : 1.45 GiBDuration : 1h 27mnOverall bit rate : 2 381 KbpsWriting library : VirtualDub build 35491/release
VideoID : 0Format : MPEG-4 VisualFormat profile : Advanced Simple@L5Format settings, BVOP : 1Format settings, QPel : NoFormat settings, GMC : No warppointsFormat settings, Matrix : CustomCodec ID : XVIDCodec ID/Hint : XviDDuration : 1h 27mnBit rate : 2 179 KbpsWidth : 720 pixelsHeight : 432 pixelsDisplay aspect ratio : 5:3Frame rate : 25.000 fpsColor space : YUVChroma subsampling : 4:2:0Bit depth : 8 bitsScan type : ProgressiveCompression mode : LossyBits/(Pixel*Frame) : 0.280Stream size : 1.33 GiB (92%)Writing library : XviD 73
AudioID : 1Format : AC-3Format/Info : Audio Coding 3Mode extension : CM (complete main)Format settings, Endianness : BigCodec ID : 2000Duration : 1h 27mnBit rate mode : ConstantBit rate : 192 KbpsChannel(s) : 2 channelsChannel positions : Front: L RSampling rate : 48.0 KHzFrame rate : 31.250 fps (1536 spf)Compression mode : LossyStream size : 120 MiB (8%)Alignment : Aligned on interleavesInterleave, duration : 40 ms (1.00 video frame)Interleave, preload duratio : 512 ms

Скриншоты



[chi5o.com]_t_5671602.torrent
Торрент: Зарегистрирован ·  [ 2019-01-09 11:02 ] ·  4702a4e3fdaa5dc1e0bcfcf8813afaae94764ada

15 KB

Статус: проверено
Скачан: 0 раз
Размер: 1.45 GB
Оценка: 
(Голосов: 0)
Сказали спасибо: 0  Спасибо
Похожие темы
[Профиль]    [ЛС]
Показать сообщения:    
Ответить на тему

Текущее время: Сегодня 02:02

Часовой пояс: GMT + 7



Вы не можете начинать темы
Вы не можете отвечать на сообщения
Вы не можете редактировать свои сообщения
Вы не можете удалять свои сообщения
Вы не можете голосовать в опросах
Вы не можете прикреплять файлы к сообщениям
Вы можете скачивать файлы


Legal Issues in Education - 942 Words | HAIFISCHNIKEZ ALLSTARS | Red Rock West