Класс 1984 / Школа 1984 / Class of 1984 (Марк Л. Лестер / Mark L. Lester) [1982, Канада, драма, BDRip-AVC] AVO (Живаго) + Sub Eng + Original Eng

Ответить на тему
Статистика раздачи [Обновить пиров]
Размер:  2.14 GB   |    Зарегистрирован:  14 дней   |    Скачан:  0 раз

Полного источника не было: Никогда

 
   
 
 
 
Автор Сообщение

chi5o.com

Создавать темы 08-Янв-2019 12:43

[Цитировать]

Школа 1984 / Class of 1984
Страна: Канада
Жанр: драма
Год выхода: 1982
Продолжительность: 01:38:13
Перевод: Авторский (одноголосый закадровый) с итальянского Николая Живаго
Субтитры: английские
Оригинальная аудиодорожка: английский
Режиссер: Марк Л. Лестер /Mark L. Lester/
В ролях: Перри Кинг /Perry King/, Мерри Линн Росс /Merrie Lynn Ross/, Родди МакДауэлл /Roddy McDowall/, Тимоти Ван Паттен /Timothy Van Patten/, Майкл Джей Фокс /Michael J. Fox/, Эл Уэксмэн /Al Waxman/
Рецензия Михаила Иванова: Жестокая лента с сильным креном в мелодраму. Банда оголтелых школьников преследует нового учителя (Кинг), решившего навести в классе порядок. Озверевшие панки-школьники во главе с учеником-психопатом (Ван Паттен) избивают его, а жену насилуют. Месть учителя не уступает по жестокости выходкам банды, но заметно превосходит их по изощренности. Конечно, все симпатии зрителей - на его стороне. Продолжение снято в 1990 году под названием "Класс 1999 года".
Доп. информация: Источник: Torrentc от Burn in; перевод Живаго оцифровал и подготовил [url=profile.php?mode=viewprofile&u=5358528]karlll[/url]
Качество видео: BDRip-AVC ~Сэмпл~
Формат файла: MKV
Видео: MPEG4 Video (H264) 1152x648 23.976fps 2664Kbps
Аудио 1: Dolby AC3 48KHz 2ch 224Kbps - р
Аудио 2: Dolby AC3 48KHz 2ch 224Kbps - а
Формат файла субтитров: softsub (SRT)

MediaInfo

Формат файла : MatroskaВерсия формата : Version 2Размер файла : 2,14 ГбайтПродолжительность : 1 ч. 38 м.Общий поток : 3114 Кбит/секНазвание фильма : Class of 1984 [KBC]Дата кодирования : UTC 2019-01-07 18:26:55Программа кодирования : mkvmerge v6.9.1 ('Blue Panther') 32bit built on Apr 18 2014 18:15:44Библиотека кодирования : libebml v1.3.0 + libmatroska v1.4.1
ВидеоИдентификатор : 1Формат файла : AVCФормат файла/Информация : Advanced Video CodecПрофиль формата : High@L3.1Параметр CABAC формата : ДаПараметр ReFrames формата : 7 кадровИдентификатор кодека : V_MPEG4/ISO/AVCПродолжительность : 1 ч. 38 м.Битрейт : 2664 Кбит/секШирина : 1152 пикселяВысота : 648 пикселейСоотношение сторон : 16:9Режим частоты кадров : ПостоянныйЧастота кадров : 23,976 кадра/секЦветовое пространство : YUVСубдискретизация насыщенности : 4:2:0Битовая глубина : 8 битТип развёртки : ПрогрессивнаяБит/(Пиксели*Кадры) : 0.149Размер потока : 1,79 Гбайт (84%)Заголовок : Class of 1984 (1982)Библиотека кодирования : x264 core 152 r2851kMod ba24899Настройки программы : cabac=1 / ref=7 / deblock=1:-1:-1 / analyse=0x3:0x113 / me=umh / subme=9 / psy=1 / fade_compensate=0.00 / psy_rd=1.00:0.20 / mixed_ref=1 / me_range=24 / chroma_me=1 / trellis=2 / 8x8dct=1 / cqm=0 / deadzone=21,11 / fast_pskip=0 / chroma_qp_offset=-3 / threads=6 / lookahead_threads=1 / sliced_threads=0 / nr=0 / decimate=0 / interlaced=0 / bluray_compat=0 / constrained_intra=0 / bframes=7 / b_pyramid=2 / b_adapt=2 / b_bias=0 / direct=3 / weightb=1 / open_gop=0 / weightp=2 / keyint=250 / keyint_min=23 / scenecut=40 / intra_refresh=0 / rc_lookahead=50 / rc=2pass / mbtree=1 / bitrate=2664 / ratetol=1.0 / qcomp=0.60 / qpmin=0 / qpmax=69 / qpstep=4 / cplxblur=20.0 / qblur=0.5 / vbv_maxrate=14000 / vbv_bufsize=14000 / nal_hrd=none / filler=0 / ip_ratio=1.40 / aq=1:1.00Язык : EnglishDefault : ДаForced : Нет
Аудио #1Идентификатор : 2Формат файла : AC-3Формат файла/Информация : Audio Coding 3Расширение режима : CM (complete main)Параметр Endianness формата : BigИдентификатор кодека : A_AC3Продолжительность : 1 ч. 38 м.Вид битрейта : ПостоянныйБитрейт : 224 Кбит/секКаналы : 2 каналаРасположение каналов : Front: L RЧастота : 48,0 КГцБитовая глубина : 16 битМетод сжатия : С потерямиРазмер потока : 157 Мбайт (7%)Заголовок : ЖивагоЯзык : RussianDefault : ДаForced : Нет
Аудио #2Идентификатор : 3Формат файла : AC-3Формат файла/Информация : Audio Coding 3Расширение режима : CM (complete main)Параметр Endianness формата : BigИдентификатор кодека : A_AC3Продолжительность : 1 ч. 38 м.Вид битрейта : ПостоянныйБитрейт : 224 Кбит/секКаналы : 2 каналаРасположение каналов : Front: L RЧастота : 48,0 КГцБитовая глубина : 16 битМетод сжатия : С потерямиРазмер потока : 157 Мбайт (7%)Заголовок : englishЯзык : EnglishDefault : НетForced : Нет
ТекстИдентификатор : 4Формат файла : UTF-8Идентификатор кодека : S_TEXT/UTF8Идентификатор кодека/Информация : UTF-8 Plain TextЗаголовок : engЯзык : EnglishDefault : НетForced : Нет
Меню00:00:00.000 : en:00:10:40.264 : en:00:17:39.141 : en:00:26:31.840 : en:00:35:56.696 : en:00:45:00.864 : en:00:53:28.121 : en:01:00:39.510 : en:01:07:26.208 : en:01:16:55.027 : en:01:22:54.427 : en:01:30:46.399 : en:

Скриншоты



[chi5o.com]_t_5671164.torrent
Торрент: Зарегистрирован ·  [ 2019-01-08 12:43 ] ·  a3f64ff0e3d10bc507b388c66abfa993c642af88

11 KB

Статус: проверено
Скачан: 0 раз
Размер: 2.14 GB
Оценка: 
(Голосов: 0)
Сказали спасибо: 0  Спасибо
Похожие темы
[Профиль]    [ЛС]
Показать сообщения:    
Ответить на тему

Текущее время: Сегодня 02:05

Часовой пояс: GMT + 7



Вы не можете начинать темы
Вы не можете отвечать на сообщения
Вы не можете редактировать свои сообщения
Вы не можете удалять свои сообщения
Вы не можете голосовать в опросах
Вы не можете прикреплять файлы к сообщениям
Вы можете скачивать файлы


Aretha Franklin - Aretha's Gold (2014) [24-88 HD FLAC] | Ana and Bruno | APPS CLUBE