[BR][TR24] Marillion - Clutching At Straws (Deluxe edition) - 1987/2018 (Progressive Rock)

Ответить на тему
Статистика раздачи [Обновить пиров]
Размер:  638 MB   |    Зарегистрирован:  1 месяц 11 дней   |    Скачан:  0 раз

Полного источника не было: Никогда

 
   
 
 
 
Автор Сообщение

chi5o.com

Создавать темы 08-Янв-2019 02:20

[Цитировать]

Marillion / Clutching At Straws
Формат файла записи/Источник записи: [BR][TR24]
Наличие водяных знаков: Нет
Издание: Deluxe edition/2018 Andy Bradfield & Avril Mackintosh Re-mix
Год издания/переиздания диска: 1987/2018
Жанр: Progressive Rock
Издатель (лейбл): Parlophone/Warner
Продолжительность: 57:33
Наличие сканов в содержимом раздачи: Нет
Треклист:
“Hotel Hobbies”
“Warm Wet Circles”
“That Time of the Night (The Short Straw)”
“Going Under” (Alternate Version)
“Just or the Record”
“White Russian”
“Incommunicado”
“Torch Song”
“Slàinte Mhath”
“Sugar Mice”
“The Last Straw + Happy Ending”
“Tux On”
Формат файла: FLAC (*.flac)
Тип рипа: tracks
Разрядность: 24/48
Формат файла: PCM
Количество каналов: 2.0

Лог проверки качества

foobar2000 1.4.1 / Dynamic Range Meter 1.1.1log date: 2019-01-07 19:43:33
--------------------------------------------------------------------------------Analyzed: Marillion / Clutching at Straws--------------------------------------------------------------------------------
DR Peak RMS Duration Track--------------------------------------------------------------------------------DR8 -2.63 dB -14.46 dB 3:35 01-Hotel HobbiesDR8 -2.63 dB -14.30 dB 4:26 02-Warm Wet CirclesDR8 -2.63 dB -14.20 dB 6:01 03-That Time of the Night (The Short Straw)DR10 -2.77 dB -13.94 dB 2:48 04-Going Under (Alternate Version)DR9 -2.63 dB -12.59 dB 3:11 05-Just for the RecordDR8 -2.63 dB -12.79 dB 6:26 06-White RussianDR8 -2.63 dB -12.17 dB 5:17 07-IncommunicadoDR10 -2.63 dB -16.16 dB 4:05 08-Torch SongDR9 -2.63 dB -14.45 dB 4:45 09-Slàinte MhathDR10 -2.63 dB -15.89 dB 5:47 10-Sugar MiceDR9 -2.63 dB -13.21 dB 5:59 11-The Last Straw ~ Happy Ending--------------------------------------------------------------------------------
Number of tracks: 11Official DR value: DR9
Samplerate: 48000 HzChannels: 2Bits per sample: 24Bitrate: 1639 kbpsCodec: FLAC================================================================================
--------------------------------------------------------------------------------Statistics for: 12-Tux OnNumber of samples: 15069120Duration: 5:14--------------------------------------------------------------------------------
Left Right
Peak Value: -0.52 dB --- -0.88 dBAvg RMS: -13.70 dB --- -13.51 dBDR channel: 9.31 dB --- 8.92 dB--------------------------------------------------------------------------------
Official DR Value: DR9
Samplerate: 48000 HzChannels: 2Bits per sample: 16Bitrate: 826 kbpsCodec: FLAC================================================================================

Скриншот спектра частот


Доп. информация: "Tux On"- 16bit/48kHz
Источник (релизер): [url=profile.php?mode=viewprofile&u=43060663]Hlor9[/url]

Состав

Fish – vocals
Steve Rothery – guitars
Mark Kelly – keyboards
Pete Trewavas – bass
Ian Mosley – drums

Об альбоме (сборнике)

Стерео-дорожка из этого издания:
http://fishmusic.scot/store/product/clutching-at-straws-deluxe-edition-cd-blu-ray/
http://www.marillion.com/shop/albums/remast43.htm


[chi5o.com]_t_5671048.torrent
Торрент: Зарегистрирован ·  [ 2019-01-08 02:20 ] ·  8e947ed953702f999441dbe21ed218156d5b5d86

14 KB

Статус: проверено
Скачан: 0 раз
Размер: 638 MB
Оценка: 
(Голосов: 0)
Сказали спасибо: 0  Спасибо
Похожие темы
[Профиль]    [ЛС]
Показать сообщения:    
Ответить на тему

Текущее время: Сегодня 07:42

Часовой пояс: GMT + 7



Вы не можете начинать темы
Вы не можете отвечать на сообщения
Вы не можете редактировать свои сообщения
Вы не можете удалять свои сообщения
Вы не можете голосовать в опросах
Вы не можете прикреплять файлы к сообщениям
Вы можете скачивать файлы


• How to Transfer Files between PC and Android Phone | Eliza Sam | Print job