Марго или девушка с соседней виллы / Margot, la pupa della villa accanto (Эннио Понтис / Ennio Pontis) [1983, Италия, Эротика, криминал, драма, VHSRip] VO (Неизвестный)

Ответить на тему
Статистика раздачи [Обновить пиров]
Размер:  1.45 GB   |    Зарегистрирован:  15 дней   |    Скачан:  0 раз

Полного источника не было: 4 дня

 
   
 
 
 
Автор Сообщение

chi5o.com

Создавать темы 07-Янв-2019 22:11

[Цитировать]

Марго или девушка с соседней виллы / Margot, la pupa della villa accanto
Страна: Италия
Жанр: Эротика , криминал , драма
Год выхода: 1983
Продолжительность: 01:22:43
Перевод: Одноголосый закадровый (Неизвестный)
Субтитры: нет
Режиссер: Эннио Понтис / Ennio Pontis
В ролях: Марк Шэннон, Марина Хедман, Лаура Ренделл, Полин Тойтшер, Лаура Симонелли, Энцо Андронико.
Описание: Джордж - киллер, работающий на одну из мафиозных группировок. Ситуация складывается так, что он сам становится объектом охоты наёмных убийц и вынужден скрываться от них, спасая свою жизнь. Этот факт никак не мешает Джорджу искать сексуальные приключения. Ему удаётся найти пристанище в небольшом особняке, пребывая в котором, он начинает интересоваться женщиной, живущей на соседней вилле. Он выясняет, что её зовут Марго, и начинает активно добиваться её внимания. Вскоре Джорджу удаётся вступить с Марго в любовную связь. Казалось бы, Джордж должен торжествовать, поскольку всё идет, как по маслу, и он уверен в том, что он и дальше будет ездить на спортивной машине, соблазнять любых понравившихся ему женщин, успешно скрываясь от преследователей, но жизнь внесёт свои коррективы и смерть настигнет киллера с неожиданной стороны...
Доп. информация: Собственная оцифровка с VHS
Эта версия фильма отличается от той , что в сети (Не содержит порносцен и т.д)
Сэмпл: http://yadi.sk/i/Z-TSfu7yRov8Og
Качество видео: VHSRip
Формат файла: AVI
Видео: XviD , 720x464 (1.55:1), 25.000 fps, 2 312 Kbps
Аудио: AC3 , 48 kHz , 192.00 kbps avg , 2/0 (L,R) ch

MediaInfo

Complete name Марго или девушка с соседней виллы 1983(VO).aviFormat : AVIFormat/Info : Audio Video InterleaveFile size : 1.45 GiBDuration : 1h 22mnOverall bit rate : 2 514 KbpsWriting library : VirtualDub build 35491/release
VideoID : 0Format : MPEG-4 VisualFormat profile : Advanced Simple@L5Format settings, BVOP : 1Format settings, QPel : NoFormat settings, GMC : No warppointsFormat settings, Matrix : CustomCodec ID : XVIDCodec ID/Hint : XviDDuration : 1h 22mnBit rate : 2 312 KbpsWidth : 720 pixelsHeight : 464 pixelsDisplay aspect ratio : 16:10Frame rate : 25.000 fpsColor space : YUVChroma subsampling : 4:2:0Bit depth : 8 bitsScan type : ProgressiveCompression mode : LossyBits/(Pixel*Frame) : 0.277Stream size : 1.34 GiB (92%)Writing library : XviD 73
AudioID : 1Format : AC-3Format/Info : Audio Coding 3Mode extension : CM (complete main)Format settings, Endianness : BigCodec ID : 2000Duration : 1h 22mnBit rate mode : ConstantBit rate : 192 KbpsChannel(s) : 2 channelsChannel positions : Front: L RSampling rate : 48.0 KHzFrame rate : 31.250 fps (1536 spf)Compression mode : LossyStream size : 114 MiB (8%)Alignment : Aligned on interleavesInterleave, duration : 40 ms (1.00 video frame)Interleave, preload duratio : 512 ms

Скриншоты



[chi5o.com]_t_5670873.torrent
Торрент: Зарегистрирован ·  [ 2019-01-07 22:11 ] ·  16e9dbc063a63a1030a20de7a6288c585a00bc10

15 KB

Статус: проверено
Скачан: 0 раз
Размер: 1.45 GB
Оценка: 
(Голосов: 0)
Сказали спасибо: 0  Спасибо
Похожие темы
[Профиль]    [ЛС]
Показать сообщения:    
Ответить на тему

Текущее время: Сегодня 02:54

Часовой пояс: GMT + 7



Вы не можете начинать темы
Вы не можете отвечать на сообщения
Вы не можете редактировать свои сообщения
Вы не можете удалять свои сообщения
Вы не можете голосовать в опросах
Вы не можете прикреплять файлы к сообщениям
Вы можете скачивать файлы


Doukyonin wa Hiza, Tokidoki, Atama no Ue. | photograv | 1x74 Dragon Ball Super