(Modern Classical, Abstract, Ambient) [CD] Ryuichi Sakamoto - Koko (Single) - 2008, FLAC (tracks+.cue), lossless

Ответить на тему
Статистика раздачи [Обновить пиров]
Размер:  45 MB   |    Зарегистрирован:  10 дней   |    Скачан:  0 раз

Полного источника не было: Никогда

 
   
 
 
 
Автор Сообщение

chi5o.com

Создавать темы 07-Янв-2019 14:08

[Цитировать]

Ryuichi Sakamoto - Koko
Жанр: Modern Classical, Abstract, Ambient
Носитель: CD
Страна-производитель диска (релиза): Япония
Год издания: 2008
Издатель (лейбл): Commmons
Номер по каталогу: RZCM-45844
Аудиокодек: FLAC (*.flac)
Тип рипа: tracks+.cue
Битрейт аудио: lossless
Продолжительность: 00:10:29
Источник (релизер): What.CD
Наличие сканов в содержимом раздачи: нет
Треклист:
01. Koko (4:06)
02. Ropa (5:13)
03. Dancing in the Sky (1:10)

Лог создания рипа

X Lossless Decoder version 20141109 (148.0)
XLD extraction logfile from 2014-11-14 16:00:56 -0500
Ryuichi Sakamoto / KOKO
Used drive : OPTIARC DVD RW AD-5680H (revision 3AHB)Media type : Pressed CD
Ripper mode : XLD Secure RipperDisable audio cache : OK for the drive with a cache less than 1375KiBMake use of C2 pointers : NORead offset correction : 48Max retry count : 20Gap status : Analyzed, Appended (except HTOA)
TOC of the extracted CD Track | Start | Length | Start sector | End sector --------------------------------------------------------- 1 | 00:00:00 | 04:05:39 | 0 | 18413 2 | 04:05:39 | 05:13:12 | 18414 | 41900 3 | 09:18:51 | 01:09:59 | 41901 | 47134
AccurateRip Summary (DiscID: 0001a3ba-00055b60-1a027403) Track 01 : OK (v1+v2, confidence 10/10) Track 02 : OK (v1+v2, confidence 10/10) Track 03 : OK (v1+v2, confidence 10/10) ->All tracks accurately ripped.
All Tracks Album gain : -1.99 dB Peak : 0.981812 Statistics Read error : 0 Jitter error (maybe fixed) : 0 Retry sector count : 0 Damaged sector count : 0
Track 01 Filename : /Users/neosora 1/Downloads/Torrents/Ryuichi Sakamoto - 2008 - KOKO [FLAC]/01 koko.flac /Users/neosora 1/Downloads/Torrents/Ryuichi Sakamoto - 2008 - KOKO [320]/01 koko.mp3 /Users/neosora 1/Downloads/Torrents/Ryuichi Sakamoto - 2008 - KOKO [V0]/01 koko.mp3 /Users/neosora 1/Downloads/Torrents/Ryuichi Sakamoto - 2008 - KOKO [V2]/01 koko.mp3 Pre-gap length : 00:02:00
Track gain : -2.49 dB Peak : 0.960785 CRC32 hash (test run) : 184AC97E CRC32 hash : 184AC97E CRC32 hash (skip zero) : 6D759B94 AccurateRip v1 signature : 331D193A AccurateRip v2 signature : B1D92B6F ->Accurately ripped (v1+v2, confidence 8+2/10) Statistics Read error : 0 Jitter error (maybe fixed) : 0 Retry sector count : 0 Damaged sector count : 0
Track 02 Filename : /Users/neosora 1/Downloads/Torrents/Ryuichi Sakamoto - 2008 - KOKO [FLAC]/02 ropa.flac /Users/neosora 1/Downloads/Torrents/Ryuichi Sakamoto - 2008 - KOKO [320]/02 ropa.mp3 /Users/neosora 1/Downloads/Torrents/Ryuichi Sakamoto - 2008 - KOKO [V0]/02 ropa.mp3 /Users/neosora 1/Downloads/Torrents/Ryuichi Sakamoto - 2008 - KOKO [V2]/02 ropa.mp3
Track gain : -1.43 dB Peak : 0.981812 CRC32 hash (test run) : C4BB5116 CRC32 hash : C4BB5116 CRC32 hash (skip zero) : 8B79C166 AccurateRip v1 signature : C2D29A43 AccurateRip v2 signature : 3EB52BEF ->Accurately ripped (v1+v2, confidence 8+2/10) Statistics Read error : 0 Jitter error (maybe fixed) : 0 Retry sector count : 0 Damaged sector count : 0
Track 03 Filename : /Users/neosora 1/Downloads/Torrents/Ryuichi Sakamoto - 2008 - KOKO [FLAC]/03 dancing in the sky.flac /Users/neosora 1/Downloads/Torrents/Ryuichi Sakamoto - 2008 - KOKO [320]/03 dancing in the sky.mp3 /Users/neosora 1/Downloads/Torrents/Ryuichi Sakamoto - 2008 - KOKO [V0]/03 dancing in the sky.mp3 /Users/neosora 1/Downloads/Torrents/Ryuichi Sakamoto - 2008 - KOKO [V2]/03 dancing in the sky.mp3
Track gain : -3.02 dB Peak : 0.886902 CRC32 hash (test run) : 136029BB CRC32 hash : 136029BB CRC32 hash (skip zero) : 9F67DECB AccurateRip v1 signature : 34259349 AccurateRip v2 signature : F7914600 ->Accurately ripped (v1+v2, confidence 8+2/10) Statistics Read error : 0 Jitter error (maybe fixed) : 0 Retry sector count : 0 Damaged sector count : 0
No errors occurred
End of status report
-----BEGIN XLD SIGNATURE-----HC7IJXJSNgWhs5vG8v.Xnrtkey51921tM6cw23OTO_tJKURsZui_eeBFSPUJUvvPa6BmfYCMfx_3OmRORLTuirdwpUyTFhGt6I1rDWS-----END XLD SIGNATURE-----

Содержание индексной карты (.CUE)

TITLE "Koko"PERFORMER "Ryuichi Sakamoto"REM GENRE "Electronic"REM DATE "2008"REM DISCID 1A027403REM REPLAYGAIN_ALBUM_GAIN -1.99 dBREM REPLAYGAIN_ALBUM_PEAK 0.981812FILE "01 - Koko.flac" WAVE TRACK 01 AUDIO TITLE "Koko" ISRC JPB600803501 REM REPLAYGAIN_TRACK_GAIN -2.49 dB REM REPLAYGAIN_TRACK_PEAK 0.960785 INDEX 01 00:00:00FILE "02 - Ropa.flac" WAVE TRACK 02 AUDIO TITLE "Ropa" ISRC JPB600803502 REM REPLAYGAIN_TRACK_GAIN -1.43 dB REM REPLAYGAIN_TRACK_PEAK 0.981812 INDEX 01 00:00:00FILE "03 - Dancing in the Sky.flac" WAVE TRACK 03 AUDIO TITLE "Dancing in the Sky" ISRC JPB600803503 REM REPLAYGAIN_TRACK_GAIN -3.02 dB REM REPLAYGAIN_TRACK_PEAK 0.886902 INDEX 01 00:00:00

Отчет CUETools

[CUETools log; Date: 07.01.2019 0:10:17; Version: 2.1.6][CTDB TOCID: VK.gF7CFCMEtoCN1dLy6IAktE4I-] found.Track | CTDB Status 1 | (15/15) Accurately ripped 2 | (15/15) Accurately ripped 3 | (15/15) Accurately ripped[AccurateRip ID: 0001a3ba-00055b60-1a027403] found.Track [ CRC | V2 ] Status 01 [331d193a|b1d92b6f] (08+02/10) Accurately ripped 02 [c2d29a43|3eb52bef] (08+02/10) Accurately ripped 03 [34259349|f7914600] (08+02/10) Accurately ripped
Track Peak [ CRC32 ] [W/O NULL] -- 98,1 [92CD51C6] [5370FBFA] 01 96,0 [184AC97E] [6D759B94] 02 98,1 [C4BB5116] [8B79C166] 03 88,6 [136029BB] [9F67DECB]

Об альбоме (сборнике)

Ryuichi Sakamoto can do no wrong in my book. His scope and variety are without peer. Yet, sometimes, his product parade leaves you wanting even more. This is a 3-song single, filled with gorgeous little piano melodies - melancholic, experimental, and frothy. But it's over before it's hardly begun. What a tease! "Koko" is a moody solo piano track. The second piece, "Ropa", filled with sparse electronics and luscious chords, could have surely been included on his magnificent duo project with Christian Fennesz, "Cendre". It opens slowly and then dissolves. Poof! The last piece, "Dancing in the Sky", is a Satie-esque miniature, quick & playful. All in all, a petite tasty morsel. Now, waiting for the feast of a new project.
-- Mr. Curt


[chi5o.com]_t_5670621.torrent
Торрент: Зарегистрирован ·  [ 2019-01-07 13:28 ] ·  3b6407b3d4395ad7f0a4cd599e51d51f6a56dd57

15 KB

Статус: проверено
Скачан: 0 раз
Размер: 45 MB
Оценка: 
(Голосов: 0)
Сказали спасибо: 0  Спасибо
Похожие темы
[Профиль]    [ЛС]
Показать сообщения:    
Ответить на тему

Текущее время: Сегодня 12:43

Часовой пояс: GMT + 7



Вы не можете начинать темы
Вы не можете отвечать на сообщения
Вы не можете редактировать свои сообщения
Вы не можете удалять свои сообщения
Вы не можете голосовать в опросах
Вы не можете прикреплять файлы к сообщениям
Вы можете скачивать файлы


eBay Branded Shipping Supplies Starter Kit | Sofort-Kaufen | Death Note Rewrite (Dub)