[TR24][OF] Zero Cult - Deep in Your Mind - 2018 (Psychill | Ambient | Downtempo)

Ответить на тему
Статистика раздачи [Обновить пиров]
Размер:  555 MB   |    Зарегистрирован:  14 дней   |    Скачан:  0 раз

Полного источника не было: Никогда

 
   
 
 
 
Автор Сообщение

chi5o.com

Создавать темы 07-Янв-2019 14:01

[Цитировать]


Zero Cult

Deep in Your Mind



• Формат файла записи | Источник записи: [TR24][OF]
• Наличие водяных знаков: Нет
• Год издания релиза: 2018
• Жанр: Psychill | Ambient | Downtempo
• Продолжительность: 00:51:47
• Источник, релизер: NT Ozkeltra
• WEB bandcamp
• Формат файла: FLAC (*.flac)
• Тип рипа: tracks
• Разрядность: 24/44,1
• Формат файла: WAV (flac.ape.wv)
• Количество каналов: 2.0
• Наличие сканов: front

01 - Catatonia (00:08:03)
02 - Asymmetry (00:06:05)
03 - Psydisco (00:06:11)
04 - Far From Here (00:07:52)
05 - Caravan (00:05:33)
06 - Turn Back (00:07:04)
07 - Silver (00:07:37)
08 - Nature's Glory (00:03:18)
-

• Замер динамического диапазона •

foobar2000 1.3.17 / Замер динамического диапазона (DR) 1.1.1Дата отчёта: 2018-12-18 19:15:14
--------------------------------------------------------------------------------Анализ: Zero Cult / Deep in Your Mind--------------------------------------------------------------------------------
DR Пики RMS Продолжительность трека--------------------------------------------------------------------------------DR7 -1.11 дБ -12.01 дБ 8:03 01-CatatoniaDR7 -1.11 дБ -10.62 дБ 6:05 02-AsymmetryDR5 -1.11 дБ -7.65 дБ 6:12 03-PsydiscoDR6 -1.11 дБ -9.54 дБ 7:53 04-Far from hereDR7 -1.11 дБ -10.24 дБ 5:34 05-CaravanDR7 -1.11 дБ -10.71 дБ 7:04 06-Turn BackDR7 -1.11 дБ -9.62 дБ 7:38 07-SilverDR8 -1.11 дБ -11.95 дБ 3:18 08-Nature's Glory--------------------------------------------------------------------------------
Количество треков: 8Реальные значения DR: DR7
Частота: 44100 ГцКаналов: 2Разрядность: 24Битрейт: 1501 кбит/сКодек: FLAC================================================================================
-


[chi5o.com]_t_5661579.torrent
Торрент: Зарегистрирован ·  [ 2019-01-07 13:28 ] ·  f5fc15705c7a751c20a2ec4f044ca6d143006579

12 KB

Статус: проверено
Скачан: 0 раз
Размер: 555 MB
Оценка: 
(Голосов: 0)
Сказали спасибо: 0  Спасибо
Похожие темы
[Профиль]    [ЛС]
Показать сообщения:    
Ответить на тему

Текущее время: Сегодня 17:18

Часовой пояс: GMT + 7



Вы не можете начинать темы
Вы не можете отвечать на сообщения
Вы не можете редактировать свои сообщения
Вы не можете удалять свои сообщения
Вы не можете голосовать в опросах
Вы не можете прикреплять файлы к сообщениям
Вы можете скачивать файлы


December 25, 2018 | Last Post | William Lo