[TR24][OF][CO] VA [l. Opal Tapes] - The Harvest of a Quiet Eye - 2018 (Ambient, Electronic, Post-Industrial)

Ответить на тему
Статистика раздачи [Обновить пиров]
Размер:  928 MB   |    Зарегистрирован:  14 дней   |    Скачан:  0 раз

Полного источника не было: Никогда

 
   
 
 
 
Автор Сообщение

chi5o.com

Создавать темы 07-Янв-2019 14:00

[Цитировать]

VA — "The Harvest of a Quiet Eye" — 2018 Жанры: Ambient | Electronic | Post-Industrial
Лэйбл: Opal Tapes (United Kingdom)
Номер по каталогу: OPAL 115
Источник: RED | Bandcamp
Количество каналов: 2.0
Формат файла: FLAC (*.flac)
Битрейт аудио: lossless
Водяные знаки: нет
Разрядность: 24bit
Частота: 44.1 kHz
Тип рипа: tracks
Формат файла: PCM
.
TRACK LISTING
01. Angelo Harmsworth - Blanch [03:47]
02. Rian Treanor - UOI-10-120 [06:55]
03. Sciahri - Solarity [04:02]
04. J. Albert - Transmission A [04:02]
05. Absurder - Plastic Hand [04:08]
06. Cremation Lily - October Sails (Unwound) [05:29]
07. Hainbach - A Man on Whom the Sun Has Come Down [05:54]
08. Etelin - Bird Element [03:09]
09. Chafik Chennouf - Virus [05:34]
10. Emra Grid - Contrary [06:36]
11. Patricia - Hardly Able to Do Anything [05:49]
12. AJA - Pageant Crack [06:14]
13. Basic House - Oil Drowning Portrait [06:30]
14. Gosheven - Kitsch Is the New Atonality [06:01]
15. Bass Clef - Song From Benedenland [05:00]
16. Lyubocha - Razyaw [05:18]
17. Evitceles - Intuition [03:20]
18. Filetillo - L∞B∞ [04:32]

total length (01:32:17)

⚫auCDtect

-----------------------
DON'T MODIFY THIS FILE
-----------------------
PERFORMER: auCDtect Task Manager, ver. 1.6.0 RC1 build 1.6.0.1Copyright (c) 2008-2010 y-soft. All rights reserved
ANALYZER: auCDtect: CD records authenticity detector, version 0.8.2Copyright (c) 2004 Oleg Berngardt. All rights reserved.Copyright (c) 2004 Alexander Djourik. All rights reserved.
FILE: 11. Patricia - Hardly Able to Do Anything.flac Size: 20605881 Hash: 3632677E6227EF5CE6204E71864B6FA7 Accuracy: -m0 Conclusion: CDDA 92% Signature: 717E9A4B8AD41C4F92B384C8AF49BCB2FA173840

dynamic range

foobar2000 1.3.9 / Dynamic Range Meter 1.1.1log date: 2018-12-16 06:13:18
--------------------------------------------------------------------------------Analyzed: Absurder / The Harvest of a Quiet Eye (1) AJA / The Harvest of a Quiet Eye (2) Angelo Harmsworth / The Harvest of a Quiet Eye (3) Basic House / The Harvest of a Quiet Eye (4) Bass Clef / The Harvest of a Quiet Eye (5) Chafik Chennouf / The Harvest of a Quiet Eye (6) Cremation Lily / The Harvest of a Quiet Eye (7) Emra Grid / The Harvest of a Quiet Eye (8) Etelin / The Harvest of a Quiet Eye (9) Evitceles / The Harvest of a Quiet Eye (10) Filetillo / The Harvest of a Quiet Eye (11) Gosheven / The Harvest of a Quiet Eye (12) Hainbach / The Harvest of a Quiet Eye (13) J. Albert / The Harvest of a Quiet Eye (14) Lyubocha / The Harvest of a Quiet Eye (15)--------------------------------------------------------------------------------
DR Peak RMS Duration Track--------------------------------------------------------------------------------DR11 0.00 dB -14.39 dB 4:08 05-Plastic HandDR3 -0.71 dB -5.24 dB 6:14 12-Pageant CrackDR6 -2.42 dB -9.85 dB 3:47 01-BlanchDR11 0.00 dB -12.87 dB 6:30 13-Oil Drowning PortraitDR9 -0.01 dB -11.09 dB 5:00 15-Song From BenedenlandDR4 -0.01 dB -7.04 dB 5:34 09-VirusDR7 -0.01 dB -9.50 dB 5:29 06-October Sails (Unwound)DR7 -0.01 dB -8.75 dB 6:36 10-ContraryDR5 -0.02 dB -8.12 dB 3:09 08-Bird ElementDR8 -0.18 dB -9.84 dB 3:20 17-IntuitionDR9 -0.01 dB -10.35 dB 4:32 18-L∞B∞DR8 -0.95 dB -11.91 dB 6:01 14-Kitsch Is the New AtonalityDR9 -0.04 dB -11.48 dB 5:54 07-A Man on Whom the Sun Has Come DownDR3 -0.59 dB -4.53 dB 4:02 04-Transmission ADR5 -0.17 dB -6.63 dB 5:17 16-Razyaw--------------------------------------------------------------------------------
Number of tracks: 15Official DR value: DR7
Samplerate: 44100 HzChannels: 2Bits per sample: 24Bitrate: 1417 kbpsCodec: FLAC================================================================================
--------------------------------------------------------------------------------Statistics for: 11-Hardly Able to Do AnythingNumber of samples: 15370784Duration: 5:49--------------------------------------------------------------------------------
Left Right
Peak Value: -2.25 dB --- -3.22 dBAvg RMS: -15.51 dB --- -15.28 dBDR channel: 8.69 dB --- 9.27 dB--------------------------------------------------------------------------------
Official DR Value: DR9
Samplerate: 44100 HzChannels: 2Bits per sample: 16Bitrate: 470 kbpsCodec: FLAC================================================================================--------------------------------------------------------------------------------Analyzed: Rian Treanor / The Harvest of a Quiet Eye (1) Sciahri / The Harvest of a Quiet Eye (2)--------------------------------------------------------------------------------
DR Peak RMS Duration Track--------------------------------------------------------------------------------DR7 -0.01 dB -11.00 dB 6:55 02-UOI-10-120DR8 -0.01 dB -10.31 dB 4:01 03-Solarity--------------------------------------------------------------------------------
Number of tracks: 2Official DR value: DR8
Samplerate: 44100 HzChannels: 2Bits per sample: 24Bitrate: 1589 kbpsCodec: FLAC================================================================================


[chi5o.com]_t_5662530.torrent
Торрент: Зарегистрирован ·  [ 2019-01-07 13:28 ] ·  8a07e6ae1b398316c228382169ee6617a88f96b5

20 KB

Статус: проверено
Скачан: 0 раз
Размер: 928 MB
Оценка: 
(Голосов: 0)
Сказали спасибо: 0  Спасибо
Похожие темы
[Профиль]    [ЛС]
Показать сообщения:    
Ответить на тему

Текущее время: Сегодня 17:27

Часовой пояс: GMT + 7



Вы не можете начинать темы
Вы не можете отвечать на сообщения
Вы не можете редактировать свои сообщения
Вы не можете удалять свои сообщения
Вы не можете голосовать в опросах
Вы не можете прикреплять файлы к сообщениям
Вы можете скачивать файлы


→ Download | #seriale | Weekly Idol Episode 370