[TR24][OF] Various Artists - Mono No Aware - 2017 (Ambient, Experimental)

Ответить на тему
Статистика раздачи [Обновить пиров]
Размер:  814 MB   |    Зарегистрирован:  10 дней   |    Скачан:  0 раз

Полного источника не было: Никогда

 
   
 
 
 
Автор Сообщение

chi5o.com

Создавать темы 07-Янв-2019 14:00

[Цитировать]

Various Artists / Mono No Aware
Формат файла записи/Источник записи: [TR24][OF]
Наличие водяных знаков: Нет
Год издания/переиздания диска: 2017
Жанр: Ambient, Experimental
Издатель (лейбл): PAN
Продолжительность: 1:16:09
Наличие сканов в содержимом раздачи: Только обложка альбома
Треклист:
1 – Kareem Lotfy - Fr3sh 3:52
2 – Malibu - Held 6:22
3 – Yves Tumor - Limerence 5:29
4 – Helm - Eliminator 3:27
5 – ADR - Open Invitation 4:49
6 – AYYA - Second Mistake 7:16
7 – Flora Yin-Wong - Lugere 2:47
8 – Mya Gomez - justforu 5:31
9 – Bill Kouligas - VXOMEG 3:36
10 – Jeff Witscher - ok, American Medium 6:19
11 – TCF - C6 81 56 28 09 34 31 D2 F9 9C D6 BD 92 ED FC 6F 6C A9 D4 88 95 8C 53 B4 55 DF 38 C4 AB E7 72 13 3:43
12 – James K feat. Eve Essex - Stretch Deep 4:20
13 – Sky H1 - Huit 3:51
14 – M.E.S.H. - Exasthrus (Pane) 3:44
15 – Oli XL - Heretic 4:17
16 – DJ Hvad, Pan Daijing - Zhao Hua 6:47
Формат файла: FLAC (*.flac)
Тип рипа: tracks
Разрядность: 24/44,1
Формат файла: WAV (flac.ape.wv)
Количество каналов: 2.0

Лог проверки качества

foobar2000 1.4.1 / Замер динамического диапазона (DR) 1.1.1Дата отчёта: 2018-12-26 21:05:41
--------------------------------------------------------------------------------Анализ: ADR / Mono No Aware (1) AYYA / Mono No Aware (2) Bill Kouligas / Mono No Aware (3) Flora Yin-Wong / Mono No Aware (4) HELM / Mono No Aware (5) HVAD & Pan Daijing / Mono No Aware (6) James K feat Eve Essex / Mono No Aware (7) Jeff Witscher / Mono No Aware (8) Kareem Lotfy / Mono No Aware (9) M E S H / Mono No Aware (10) Malibu / Mono No Aware (11) Mya Gomez / Mono No Aware (12) Oli XL / Mono No Aware (13) Sky H1 / Mono No Aware (14) TCF / Mono No Aware (15) Yves Tumor / Mono No Aware (16)--------------------------------------------------------------------------------
DR Пики RMS Продолжительность трека--------------------------------------------------------------------------------DR6 -0.19 дБ -9.94 дБ 4:49 05-Open InvitationDR8 -0.35 дБ -10.59 дБ 7:16 06-Second MistakeDR11 -0.50 дБ -15.58 дБ 3:36 09-VXOMEGDR8 -0.28 дБ -11.56 дБ 2:47 07-LugereDR9 -0.20 дБ -13.97 дБ 3:27 04-EliminatorDR9 -0.45 дБ -12.01 дБ 6:47 16-Zhao HuaDR7 -0.79 дБ -10.15 дБ 4:20 12-Stretch DeepDR9 -0.22 дБ -12.56 дБ 6:19 10-ok, American MediumDR7 -0.19 дБ -9.31 дБ 3:52 01-Fr3shDR6 -0.19 дБ -10.35 дБ 3:44 14-Exasthrus (Pane)DR8 -0.38 дБ -14.10 дБ 6:22 02-HeldDR8 -0.22 дБ -10.96 дБ 5:31 08-justforuDR9 -0.46 дБ -13.22 дБ 4:17 15-HereticDR10 -0.38 дБ -12.53 дБ 3:51 13-HuitDR9 -0.34 дБ -12.02 дБ 3:43 11-C6 81 56 28 09 34 31 D2 F9 9C D6 BD 92 ED FC 6F 6C A9 D4 88 95 8C 53 B4 55 DF 38 C4 AB E7 72 13DR10 -0.33 дБ -11.66 дБ 5:29 03-Limerence--------------------------------------------------------------------------------
Количество треков: 16Реальные значения DR: DR8
Частота: 44100 ГцКаналов: 2Разрядность: 24Битрейт: 1392 кбит/сКодек: FLAC================================================================================
Источник (релизер): boomkat


[chi5o.com]_t_5665413.torrent
Торрент: Зарегистрирован ·  [ 2019-01-07 13:28 ] ·  66e10fd403685571bfb93388a2715a88d6b8acca

17 KB

Статус: проверено
Скачан: 0 раз
Размер: 814 MB
Оценка: 
(Голосов: 0)
Сказали спасибо: 0  Спасибо
Похожие темы
[Профиль]    [ЛС]
Показать сообщения:    
Ответить на тему

Текущее время: Сегодня 12:37

Часовой пояс: GMT + 7



Вы не можете начинать темы
Вы не можете отвечать на сообщения
Вы не можете редактировать свои сообщения
Вы не можете удалять свои сообщения
Вы не можете голосовать в опросах
Вы не можете прикреплять файлы к сообщениям
Вы можете скачивать файлы


Weiterlesen | 12 Monkeys - Saison 3 | The Great Dictator